(Classical) Онсло – Струнные квартеты II: № 1, 10 и 21 / Onslow – String Quartets, Vol. 2: Opp. 4/1, 10/1 & 46/3 (Mandelring Quartett: Sebastian, Nanette & Bernhard Schmidt with Michael Scheitzbach) - 1998, FLAC (image+.cue) lossless


 

[Цитировать]

Онсло – Струнные квартеты II: № 1, 10 и 21 / Onslow – String Quartets, Vol. 2: Opp. 4/1, 10/1 & 46/3 (Mandelring Quartett: Sebastian, Nanette & Bernhard Schmidt with Michael Scheitzbach)
Жанр: Classical
Страна-производитель диска: Германия
Год издания диска: 1998
Издатель (лейбл): cpo
Номер по каталогу: 999 329-2
Дата записи: 10 — 12 декабря 1997 г., Кайзерслаутерн.
Аудиокодек: FLAC
Тип рипа: image+.cue
Битрейт аудио: lossless
Продолжительность: 01:05:24
Источник: odeonmusic
Наличие сканов в содержимом раздачи: да
Треклист:
Андре Жорж Луи Онсло (1784 — 1853).
Три струнных квартета, op. 4 (1810): № 1 (1) B-dur.
01. I. Allegro con brio [06:02].
02. II. Andantino sostenuto [05:06].
03. III. Minuetto. Allegro. — Trio. — Minuetto da capo [03:37].
04. IV. Finale. Allegro [04:03].
Три струнных квартета, op. 10 (1815): № 1 (10) G-dur.
05. I. Allegro spiritoso [06:23].
06. II. Adagio [06:48].
07. III. Minuetto. Allegro risoluto. — Танец из овернских гор. — [Tempo I] [02:59].
08. IV. Finale. Allegretto ma non troppo lento [03:27].
Три струнных квартета, op. 46 (1832/1833): № 3 (21) g-moll.
09. I. Allegro non troppo vivo [07:32].
10. II. Adagio religioso [09:19].
11. III. Menuetto. Allegretto [04:44].
12. IV. Finale. Presto [05:12].
Исполнители:
Mandelring Quartett:
Sebastian Schmidt (скрипка),
Nanette Schmidt (скрипка),
Michael Scheitzbach (альт),
Bernhard Schmidt (виолончель).

Лог создания рипа

Exact Audio Copy V1.0 beta 3 from 29. August 2011
EAC extraction logfile from 19. January 2013, 10:12
Mandelring Quartet / Onslow - String Quartets - Mandelring Quartett (Vol.2)
Used drive : TSSTcorpCDDVDW SH-222BB Adapter: 2 ID: 1
Read mode : Secure
Utilize accurate stream : Yes
Defeat audio cache : Yes
Make use of C2 pointers : No
Read offset correction : 6
Overread into Lead-In and Lead-Out : No
Fill up missing offset samples with silence : Yes
Delete leading and trailing silent blocks : No
Null samples used in CRC calculations : Yes
Used interface : Native Win32 interface for Win NT & 2000
Used output format : User Defined Encoder
Selected bitrate : 1024 kBit/s
Quality : High
Add ID3 tag : No
Command line compressor : C:\Program Files\Exact Audio Copy\Flac\flac.exe
Additional command line options : -8 -V -T "TITLE=%title%" -T "ARTIST=%artist%" -T "ALBUMARTIST=%albumartist%" -T "ALBUM=%albumtitle%" -T "DATE=%year%" -T "TRACKNUMBER=%tracknr%" -T "TRACKTOTAL=%numtracks%" -T "GENRE=%genre%" -T "COMMENT=%comment%" -T "PERFORMER=%albuminterpret%" -T "COMPOSER=%composer%" %source% -o %dest%
TOC of the extracted CD
Track | Start | Length | Start sector | End sector
---------------------------------------------------------
1 | 0:00.00 | 6:02.10 | 0 | 27159
2 | 6:02.10 | 5:05.63 | 27160 | 50097
3 | 11:07.73 | 3:37.34 | 50098 | 66406
4 | 14:45.32 | 4:06.44 | 66407 | 84900
5 | 18:52.01 | 6:23.19 | 84901 | 113644
6 | 25:15.20 | 6:47.64 | 113645 | 144233
7 | 32:03.09 | 2:58.65 | 144234 | 157648
8 | 35:01.74 | 3:33.03 | 157649 | 173626
9 | 38:35.02 | 7:31.20 | 173627 | 207471
10 | 46:06.22 | 9:19.54 | 207472 | 249450
11 | 55:26.01 | 4:44.09 | 249451 | 270759
12 | 60:10.10 | 5:14.31 | 270760 | 294340
Range status and errors
Selected range
Filename G:\Ripped general\[9244] Onslow - String Quartets – Mandelring Quartett (Vol.2)\Onslow - String Quartets - Mandelring Quartett (Vol.2).wav
Peak level 99.0 %
Extraction speed 7.8 X
Range quality 100.0 %
Test CRC AFEA2013
Copy CRC AFEA2013
Copy OK
No errors occurred
AccurateRip summary
Track 1 accurately ripped (confidence 5) [9D1E80BA] (AR v1)
Track 2 accurately ripped (confidence 5) [E0CC3DA5] (AR v1)
Track 3 accurately ripped (confidence 5) [A7289D7B] (AR v1)
Track 4 accurately ripped (confidence 5) [E7B54E3F] (AR v1)
Track 5 accurately ripped (confidence 5) [7F9F38D9] (AR v1)
Track 6 accurately ripped (confidence 5) [1F0D1DC4] (AR v1)
Track 7 accurately ripped (confidence 5) [2FDBCE17] (AR v1)
Track 8 accurately ripped (confidence 5) [DA74FB38] (AR v1)
Track 9 accurately ripped (confidence 5) [BD2B25AC] (AR v1)
Track 10 accurately ripped (confidence 5) [AC00ABA6] (AR v1)
Track 11 accurately ripped (confidence 5) [30F1DFD0] (AR v1)
Track 12 accurately ripped (confidence 5) [8685769F] (AR v1)
All tracks accurately ripped
End of status report

Содержание индексной карты (.CUE)

REM GENRE Classical
REM DISCID A90F540C
REM COMMENT "ExactAudioCopy v1.0b3"
PERFORMER "Mandelring Quartet"
TITLE "Onslow – String quartets – Mandelring Quartett (Vol. 2)"
FILE "Onslow – String quartets – Mandelring Quartett (Vol. 2).flac" WAVE
TRACK 01 AUDIO
TITLE "String Quartet No. 1 in B flat major, Op. 4 No. 1 - I. Allegro con brio"
PERFORMER "Mandelring Quartet"
FLAGS DCP
INDEX 01 00:00:00
TRACK 02 AUDIO
TITLE "String Quartet No. 1 in B flat major, Op. 4 No. 1 - II. Andantino sostenuto"
PERFORMER "Mandelring Quartet"
FLAGS DCP
INDEX 01 06:02:10
TRACK 03 AUDIO
TITLE "String Quartet No. 1 in B flat major, Op. 4 No. 1 - III. Minuetto. Allegro"
PERFORMER "Mandelring Quartet"
FLAGS DCP
INDEX 01 11:07:73
TRACK 04 AUDIO
TITLE "String Quartet No. 1 in B flat major, Op. 4 No. 1 - IV. Finale. Allegro"
PERFORMER "Mandelring Quartet"
FLAGS DCP
INDEX 01 14:45:32
TRACK 05 AUDIO
TITLE "String Quartet No. 10 in G major, Op. 10 No. 1 - I. Allegro spiritoso"
PERFORMER "Mandelring Quartet"
FLAGS DCP
INDEX 01 18:52:01
TRACK 06 AUDIO
TITLE "String Quartet No. 10 in G major, Op. 10 No. 1 - II. Adagio"
PERFORMER "Mandelring Quartet"
FLAGS DCP
INDEX 01 25:15:20
TRACK 07 AUDIO
TITLE "String Quartet No. 10 in G major, Op. 10 No. 1 - III. Menuetto. Allegro risoluto"
PERFORMER "Mandelring Quartet"
FLAGS DCP
INDEX 01 32:03:09
TRACK 08 AUDIO
TITLE "String Quartet No. 10 in G major, Op. 10 No. 1 - IV. Finale. Allegretto ma non troppo lento"
PERFORMER "Mandelring Quartet"
FLAGS DCP
INDEX 01 35:01:74
TRACK 09 AUDIO
TITLE "String Quartet No. 21 in G minor, Op. 46 No. 3 - I. Allegro non troppo vivo"
PERFORMER "Mandelring Quartet"
FLAGS DCP
INDEX 01 38:35:02
TRACK 10 AUDIO
TITLE "String Quartet No. 21 in G minor, Op. 46 No. 3 - II. Adagio religioso"
PERFORMER "Mandelring Quartet"
FLAGS DCP
INDEX 01 46:06:22
TRACK 11 AUDIO
TITLE "String Quartet No. 21 in G minor, Op. 46 No. 3 - III. Menuetto. Allegretto"
PERFORMER "Mandelring Quartet"
FLAGS DCP
INDEX 01 55:26:01
TRACK 12 AUDIO
TITLE "String Quartet No. 21 in G minor, Op. 46 No. 3 - IV. Finale. Presto"
PERFORMER "Mandelring Quartet"
FLAGS DCP
INDEX 01 60:10:10

Вариант индексной карты (.CUE) с выставленными зазорами

REM GENRE Classical
REM DISCID A90F540C
REM COMMENT "ExactAudioCopy v1.0b3"
PERFORMER "Mandelring Quartet"
TITLE "Onslow – String quartets – Mandelring Quartett (Vol. 2)"
FILE "Onslow – String quartets – Mandelring Quartett (Vol. 2).flac" WAVE
TRACK 01 AUDIO
FLAGS DCP
TITLE "String Quartet No. 1 in B flat major, Op. 4 No. 1 - I. Allegro con brio"
PERFORMER "Mandelring Quartet"
INDEX 00 00:00:00
INDEX 01 00:02:02
TRACK 02 AUDIO
FLAGS DCP
TITLE "String Quartet No. 1 in B flat major, Op. 4 No. 1 - II. Andantino sostenuto"
PERFORMER "Mandelring Quartet"
INDEX 00 06:02:09
INDEX 01 06:03:06
TRACK 03 AUDIO
FLAGS DCP
TITLE "String Quartet No. 1 in B flat major, Op. 4 No. 1 - III. Minuetto. Allegro"
PERFORMER "Mandelring Quartet"
INDEX 00 11:08:39
INDEX 01 11:09:55
TRACK 04 AUDIO
FLAGS DCP
TITLE "String Quartet No. 1 in B flat major, Op. 4 No. 1 - IV. Finale. Allegro"
PERFORMER "Mandelring Quartet"
INDEX 01 14:46:05
TRACK 05 AUDIO
FLAGS DCP
TITLE "String Quartet No. 10 in G major, Op. 10 No. 1 - I. Allegro spiritoso"
PERFORMER "Mandelring Quartet"
INDEX 00 18:49:68
INDEX 01 18:53:48
TRACK 06 AUDIO
FLAGS DCP
TITLE "String Quartet No. 10 in G major, Op. 10 No. 1 - II. Adagio"
PERFORMER "Mandelring Quartet"
INDEX 00 25:14:01
INDEX 01 25:16:40
TRACK 07 AUDIO
FLAGS DCP
TITLE "String Quartet No. 10 in G major, Op. 10 No. 1 - III. Menuetto. Allegro risoluto"
PERFORMER "Mandelring Quartet"
INDEX 01 32:04:27
TRACK 08 AUDIO
FLAGS DCP
TITLE "String Quartet No. 10 in G major, Op. 10 No. 1 - IV. Finale. Allegretto ma non troppo lento"
PERFORMER "Mandelring Quartet"
INDEX 01 35:03:02
TRACK 09 AUDIO
FLAGS DCP
TITLE "String Quartet No. 21 in G minor, Op. 46 No. 3 - I. Allegro non troppo vivo"
PERFORMER "Mandelring Quartet"
INDEX 00 38:30:06
INDEX 01 38:35:26
TRACK 10 AUDIO
FLAGS DCP
TITLE "String Quartet No. 21 in G minor, Op. 46 No. 3 - II. Adagio religioso"
PERFORMER "Mandelring Quartet"
INDEX 00 46:05:18
INDEX 01 46:08:36
TRACK 11 AUDIO
FLAGS DCP
TITLE "String Quartet No. 21 in G minor, Op. 46 No. 3 - III. Menuetto. Allegretto"
PERFORMER "Mandelring Quartet"
INDEX 00 55:25:70
INDEX 01 55:26:56
TRACK 12 AUDIO
FLAGS DCP
TITLE "String Quartet No. 21 in G minor, Op. 46 No. 3 - IV. Finale. Presto"
PERFORMER "Mandelring Quartet"
INDEX 01 60:11:32
INDEX 02 65:19:39



Показать сообщения:    

Текущее время: 05-Дек 13:34

Часовой пояс: UTC + 3


Вы не можете начинать темы
Вы не можете отвечать на сообщения
Вы не можете редактировать свои сообщения
Вы не можете удалять свои сообщения
Вы не можете голосовать в опросах
Вы не можете прикреплять файлы к сообщениям
Вы не можете скачивать файлы