(Classical) [LP] [24/48] Karl Muck/Карл Мук - Из Сокровищницы Мирового Исполнительского Искусства (R.Wagner) - 1980, FLAC (tracks+.cue)


Статистика раздачи [Обновить пиров]
Размер:  235 MB   |    Зарегистрирован:  8 месяцев 20 дней   |    Скачан:  0 раз

Полного источника не было: Никогда

 
   
 
 
 

[Цитировать]

Karl Muck/Карл Мук - Из Сокровищницы Мирового Исполнительского Искусства (R.Wagner)
Жанр: Classical
Носитель: LP
Год выпуска: 1980
Лейбл: Melodya
Страна-производитель: USSR
Аудио кодек: FLAC
Тип рипа: tracks+.cue
Формат записи: 32/192
Формат раздачи: 24/48
Продолжительность: 46.20 min
Треклист:
Р.Вагнер (1813-1883)
Side One:
01. Увертура к опере ''Летучий Голландец''
02. Путешествие Зигфрида по Рейну ''Гибел Богов, 1 д.''
03. Траурный марш ''Гибел Богов, 3 д.''
Архивные записи 1928-1932 годов
Side Two:
04. Фрагменты из опери ''Парсифаль'' - Из Первого действия
05. Фрагменты из опери ''Парсифаль'' - Из Первого действия
06. Фрагменты из опери ''Парсифаль'' - Из второго действия
Архивные записи 1927 года
Источник оцифровки: автором раздачи
Код класса состояния винила: Mint
Устройство воспроизведения: Электроника ЭП 017С
Головка звукоснимателя: Audio-Technica AT95
Предварительный усилитель: Бриг-001
АЦП: VIA HD audio device
Программа-оцифровщик: Izotope RX III Advanced
Обработка: Manual

Спектр+АЧХ+Уровень записи


DR=12

foobar2000 1.1.10 / Dynamic Range Meter 1.1.1
log date: 2014-11-20 18:03:43
--------------------------------------------------------------------------------
Analyzed: Karl Muck / Conductors
--------------------------------------------------------------------------------
DR Peak RMS Duration Track
--------------------------------------------------------------------------------
DR11 -2.34 dB -18.04 dB 9:57 ?-Overture to the opera "The Flying Dutchman"
DR11 -3.09 dB -18.43 dB 4:20 ?-Siegfried's Rhine Journey "Gotterdammerung, Act 1"
DR13 -2.74 dB -21.19 dB 7:55 ?-Funeral March "Gotterdammerung, Act 3"
DR12 -3.51 dB -19.89 dB 6:40 ?-Excerpts from the opera "Parsifal" - From Act 1
DR13 -2.11 dB -20.41 dB 12:34 ?-Excerpts from the opera "Parsifal" - From Act 1
DR12 -2.83 dB -19.43 dB 4:54 ?-Excerpts from the opera "Parsifal" - From Act 2
--------------------------------------------------------------------------------
Number of tracks: 6
Official DR value: DR12
Samplerate: 48000 Hz
Channels: 1
Bits per sample: 24
Bitrate: 664 kbps
Codec: FLAC
================================================================================

Back,Inner,Disc





[teatrix.ru].t19507.torrent 
Торрент: Зарегистрирован [ 2016-03-18 12:30 ] · 6A5543371B4F9E4C14915BB0DD6F804DC40C2E12

Скачать .torrent

Скачать

20 KB

Статус: проверено
Скачан: 0 раз
Размер: 235 MB
terms.php



Быстрый ответ

Имя:

      
Для отправки сообщений необходимо включить JavaScript
Показать сообщения:    

Текущее время: 08-Дек 09:07

Часовой пояс: UTC + 3


Вы можете начинать темы
Вы можете отвечать на сообщения
Вы не можете редактировать свои сообщения
Вы не можете удалять свои сообщения
Вы не можете голосовать в опросах
Вы не можете прикреплять файлы к сообщениям
Вы можете скачивать файлы