(Baroque concerts & french cantatas) Pignolet de Monteclair - Concerts & Cantates Francaises [Concerts & French Cantatas] (Jacqueline Nicolas) - 1989, FLAC (image+.cue) lossless


Статистика раздачи [Обновить пиров]
Размер:  306 MB   |    Зарегистрирован:  8 месяцев 15 дней   |    Скачан:  1 раз

Полного источника не было: 2 дня 13 часов

 
   
 
 
 

[Цитировать]

Monteclair - Concerts & French Cantatas

Жанр: Baroque concerts & french cantatas
Страна-производитель диска: Made in France
Год издания диска: 1989
Издатель (лейбл): PIERRE VERANY
Номер по каталогу: PV. 788051
Дата записи: 1987
Аудиокодек: FLAC
Тип рипа: image+.cue
Битрейт аудио: lossless
Продолжительность: 58'32
Источник: релизер
сайт-источник/ник/другое: curumo
Наличие сканов в содержимом раздачи: да
Треклист:

скрытый текст

1. La Mort De Didon: Cant. Recitatif (Lent, Marque Et Detache)
2. Air (Lent)
3. Cant. Recitatif
4. Air (Vivement)
5. Recitatif
6. Air (Gay)
7. IVe Conc: La Melancolique (Lentment)
8. La Joyeuse
9. La Tenebreuse (Lentement)
10. 1ere Et 2e Folette (Gayment)
11. Le Depit Genereux: 4e Cant. Recitatif
12. Air
13. Recitatif
14. Air Tendre
15. Recitatif
16. Air (Gaiement)
17. Ier Conc: L' Espagnol (Prld, Lentement)
18. Sommeil Des Festes De L'ete (Lentement)
19. Le Poitevin (Menuet)
20. La Francoise (Gay)
21. Le Retour De La Paix: Cant. Recitatif (Vivement)
22. Air (Tendrement)
23. Recitatif (Legerement)
24. Recitatif
25. Air (Lent Et Detache)
26. Recitatif (Leger Et Doux)
27. Recitatif
28. Air (Gay)
Исполнители:

скрытый текст

Michel Pignolet de Monteclair
Concerts & French Cantatas
Jacqueline Nicolas, dessus
Daniel Cuiller, violon 1
Emmanuel Schricke, violon 2
Gerard Scharapan, flute
Jay Bernfeld, viole de gambe
Jocelyne Cuiller, clavecin

Лог создания рипа

Exact Audio Copy V1.0 beta 3 from 29. August 2011
EAC extraction logfile from 20. February 2014, 9:42
Jacqueline Nicolas, Pariser Quartett / Montéclair, Concerts & Cantates françaises
Used drive : HL-DT-STDVD-RAM GH22LS30 Adapter: 2 ID: 0
Read mode : Secure
Utilize accurate stream : Yes
Defeat audio cache : Yes
Make use of C2 pointers : No
Read offset correction : 102
Overread into Lead-In and Lead-Out : No
Fill up missing offset samples with silence : Yes
Delete leading and trailing silent blocks : No
Null samples used in CRC calculations : Yes
Used interface : Native Win32 interface for Win NT & 2000
Used output format : User Defined Encoder
Selected bitrate : 768 kBit/s
Quality : High
Add ID3 tag : No
Command line compressor : C:\Program Files (x86)\FLAC\flac.exe
Additional command line options : -T "artist=%artist%" -T "title=%title%" -T "album=%albumtitle%" -T "date=%year%" -T "tracknumber=%tracknr%" -T "genre=%genre%" -5 %source%
TOC of the extracted CD
Track | Start | Length | Start sector | End sector
---------------------------------------------------------
1 | 0:00.32 | 2:42.45 | 32 | 12226
2 | 2:43.02 | 3:47.13 | 12227 | 29264
3 | 6:30.15 | 0:47.00 | 29265 | 32789
4 | 7:17.15 | 2:02.45 | 32790 | 41984
5 | 9:19.60 | 1:29.30 | 41985 | 48689
6 | 10:49.15 | 1:26.15 | 48690 | 55154
7 | 12:15.30 | 2:24.55 | 55155 | 66009
8 | 14:40.10 | 1:11.65 | 66010 | 71399
9 | 15:52.00 | 2:29.40 | 71400 | 82614
10 | 18:21.40 | 2:59.65 | 82615 | 96104
11 | 21:21.30 | 1:26.40 | 96105 | 102594
12 | 22:47.70 | 3:01.60 | 102595 | 116229
13 | 25:49.55 | 1:00.60 | 116230 | 120789
14 | 26:50.40 | 3:00.35 | 120790 | 134324
15 | 29:51.00 | 0:47.40 | 134325 | 137889
16 | 30:38.40 | 4:19.65 | 137890 | 157379
17 | 34:58.30 | 1:40.20 | 157380 | 164899
18 | 36:38.50 | 2:40.20 | 164900 | 176919
19 | 39:18.70 | 0:31.12 | 176920 | 179256
20 | 39:50.07 | 1:34.25 | 179257 | 186331
21 | 41:24.32 | 1:45.20 | 186332 | 194226
22 | 43:09.52 | 4:42.53 | 194227 | 215429
23 | 47:52.30 | 1:33.40 | 215430 | 222444
24 | 49:25.70 | 0:30.65 | 222445 | 224759
25 | 49:56.60 | 3:22.62 | 224760 | 239971
26 | 53:19.47 | 1:17.48 | 239972 | 245794
27 | 54:37.20 | 1:28.37 | 245795 | 252431
28 | 56:05.57 | 2:28.03 | 252432 | 263534
Range status and errors
Selected range
Filename G:\1.RIP\102. Monteclair.EAC.IC-Yandex\upload\Jacqueline Nicolas, Pariser Quartett - Montéclair, Concerts & Cantates françaises.wav
Peak level 97.4 %
Extraction speed 2.7 X
Range quality 100.0 %
Copy CRC BBB0D841
Copy OK
No errors occurred
AccurateRip summary
Track 1 not present in database
Track 2 not present in database
Track 3 not present in database
Track 4 not present in database
Track 5 not present in database
Track 6 not present in database
Track 7 not present in database
Track 8 not present in database
Track 9 not present in database
Track 10 not present in database
Track 11 not present in database
Track 12 not present in database
Track 13 not present in database
Track 14 not present in database
Track 15 not present in database
Track 16 not present in database
Track 17 not present in database
Track 18 not present in database
Track 19 not present in database
Track 20 not present in database
Track 21 not present in database
Track 22 not present in database
Track 23 not present in database
Track 24 not present in database
Track 25 not present in database
Track 26 not present in database
Track 27 not present in database
Track 28 not present in database
None of the tracks are present in the AccurateRip database
End of status report

Содержание индексной карты (.CUE)

REM GENRE Baroque
REM DATE 1987
REM DISCID 950DB91C
REM COMMENT "ExactAudioCopy v1.0b3"
PERFORMER "Jacqueline Nicolas, Pariser Quartett"
TITLE "Monteclair, Concerts & Cantates francaises"
FILE "Jacqueline Nicolas, Pariser Quartett - Monteclair, Concerts & Cantates francaises.flac" WAVE
TRACK 01 AUDIO
TITLE "La Mort de Didon - I. Recitatif"
PERFORMER "Jacqueline Nicolas, Pariser Quartett"
FLAGS PRE
INDEX 00 00:00:00
INDEX 01 00:00:32
TRACK 02 AUDIO
TITLE "La Mort de Didon - II. Air (lent)"
PERFORMER "Jacqueline Nicolas, Pariser Quartett"
FLAGS PRE
INDEX 00 02:40:70
INDEX 01 02:43:02
TRACK 03 AUDIO
TITLE "La Mort de Didon - III. Recitatif"
PERFORMER "Jacqueline Nicolas, Pariser Quartett"
FLAGS PRE
INDEX 00 06:29:12
INDEX 01 06:30:15
TRACK 04 AUDIO
TITLE "La Mort de Didon - IV. Air (vivement)"
PERFORMER "Jacqueline Nicolas, Pariser Quartett"
FLAGS PRE
INDEX 01 07:17:15
TRACK 05 AUDIO
TITLE "La Mort de Didon - V. Recitatif"
PERFORMER "Jacqueline Nicolas, Pariser Quartett"
FLAGS PRE
INDEX 01 09:19:60
TRACK 06 AUDIO
TITLE "La Mort de Didon - VI. Air (gay)"
PERFORMER "Jacqueline Nicolas, Pariser Quartett"
FLAGS PRE
INDEX 00 10:47:07
INDEX 01 10:49:15
TRACK 07 AUDIO
TITLE "IVe Concert - I. La Melancolique"
PERFORMER "Jacqueline Nicolas, Pariser Quartett"
FLAGS PRE
INDEX 00 12:07:05
INDEX 01 12:15:30
TRACK 08 AUDIO
TITLE "IVe Concert - II. La Joyeuse"
PERFORMER "Jacqueline Nicolas, Pariser Quartett"
FLAGS PRE
INDEX 00 14:38:67
INDEX 01 14:40:10
TRACK 09 AUDIO
TITLE "IVe Concert - III. La Tenebreuse"
PERFORMER "Jacqueline Nicolas, Pariser Quartett"
FLAGS PRE
INDEX 00 15:51:12
INDEX 01 15:52:00
TRACK 10 AUDIO
TITLE "IVe Concert - IV. 1ere et 2e Folette"
PERFORMER "Jacqueline Nicolas, Pariser Quartett"
FLAGS PRE
INDEX 00 18:19:70
INDEX 01 18:21:40
TRACK 11 AUDIO
TITLE "Le Depit genereux - I. Recitatif"
PERFORMER "Jacqueline Nicolas, Pariser Quartett"
FLAGS PRE
INDEX 00 21:11:22
INDEX 01 21:21:30
TRACK 12 AUDIO
TITLE "Le Depit genereux - II. Air"
PERFORMER "Jacqueline Nicolas, Pariser Quartett"
FLAGS PRE
INDEX 00 22:47:42
INDEX 01 22:47:70
TRACK 13 AUDIO
TITLE "Le Depit genereux - III. Recitatif"
PERFORMER "Jacqueline Nicolas, Pariser Quartett"
FLAGS PRE
INDEX 01 25:49:55
TRACK 14 AUDIO
TITLE "Le Depit genereux - IV. Air tendre avec une flute traversiere"
PERFORMER "Jacqueline Nicolas, Pariser Quartett"
FLAGS PRE
INDEX 01 26:50:40
TRACK 15 AUDIO
TITLE "Le Depit genereux - V. Recitatif"
PERFORMER "Jacqueline Nicolas, Pariser Quartett"
FLAGS PRE
INDEX 01 29:51:00
TRACK 16 AUDIO
TITLE "Le Depit genereux - VI. Air (gaiement)"
PERFORMER "Jacqueline Nicolas, Pariser Quartett"
FLAGS PRE
INDEX 00 30:37:70
INDEX 01 30:38:40
TRACK 17 AUDIO
TITLE "Ier Concert - I. L'Espagnol"
PERFORMER "Jacqueline Nicolas, Pariser Quartett"
FLAGS PRE
INDEX 00 34:48:25
INDEX 01 34:58:30
TRACK 18 AUDIO
TITLE "Ier Concert - II. Sommeil des festes de l'ete"
PERFORMER "Jacqueline Nicolas, Pariser Quartett"
FLAGS PRE
INDEX 00 36:37:47
INDEX 01 36:38:50
TRACK 19 AUDIO
TITLE "Ier Concert - III. Le Poitevin"
PERFORMER "Jacqueline Nicolas, Pariser Quartett"
FLAGS PRE
INDEX 00 39:17:50
INDEX 01 39:18:70
TRACK 20 AUDIO
TITLE "Ier Concert - IV. La Francoise"
PERFORMER "Jacqueline Nicolas, Pariser Quartett"
FLAGS PRE
INDEX 01 39:50:07
TRACK 21 AUDIO
TITLE "Le Retour de la Paix - I. Recitatif"
PERFORMER "Jacqueline Nicolas, Pariser Quartett"
FLAGS PRE
INDEX 00 41:17:57
INDEX 01 41:24:32
TRACK 22 AUDIO
TITLE "Le Retour de la Paix - II. Air (tendrement)"
PERFORMER "Jacqueline Nicolas, Pariser Quartett"
FLAGS PRE
INDEX 00 43:08:05
INDEX 01 43:09:52
TRACK 23 AUDIO
TITLE "Le Retour de la Paix - III. Recitatif (legerement)"
PERFORMER "Jacqueline Nicolas, Pariser Quartett"
FLAGS PRE
INDEX 00 47:51:15
INDEX 01 47:52:30
TRACK 24 AUDIO
TITLE "Le Retour de la Paix - IV. Recitatif"
PERFORMER "Jacqueline Nicolas, Pariser Quartett"
FLAGS PRE
INDEX 01 49:25:70
TRACK 25 AUDIO
TITLE "Le Retour de la Paix - V. Air (lent et detache)"
PERFORMER "Jacqueline Nicolas, Pariser Quartett"
FLAGS PRE
INDEX 00 49:56:50
INDEX 01 49:56:60
TRACK 26 AUDIO
TITLE "Le Retour de la Paix - VI. Recitatif (leger et doux)"
PERFORMER "Jacqueline Nicolas, Pariser Quartett"
FLAGS PRE
INDEX 00 53:18:60
INDEX 01 53:19:47
TRACK 27 AUDIO
TITLE "Le Retour de la Paix - VII. Recitatif"
PERFORMER "Jacqueline Nicolas, Pariser Quartett"
FLAGS PRE
INDEX 01 54:37:20
TRACK 28 AUDIO
TITLE "Le Retour de la Paix - VIII. Air de trompetes et de musetes"
PERFORMER "Jacqueline Nicolas, Pariser Quartett"
FLAGS PRE
INDEX 01 56:05:57
[teatrix.ru].t19508.torrent 
Торрент: Зарегистрирован [ 2016-03-18 12:44 ] · BD7021DA2FCD50ABB605458F3A33723701D7C724

Скачать .torrent

Скачать

13 KB

Статус: проверено
Скачан: 1 раз
Размер: 306 MB
terms.php



Быстрый ответ

Имя:

      
Для отправки сообщений необходимо включить JavaScript
Показать сообщения:    

Текущее время: 03-Дек 05:27

Часовой пояс: UTC + 3


Вы можете начинать темы
Вы можете отвечать на сообщения
Вы не можете редактировать свои сообщения
Вы не можете удалять свои сообщения
Вы не можете голосовать в опросах
Вы не можете прикреплять файлы к сообщениям
Вы можете скачивать файлы