(Classical) Joonas Kokkonen - Symphony No.3; Opus sonorum; Requiem - Soile Isokoski, Walton Gronroos, Savonlinna Opera Festival Choir, Lahti Symphony Orchestra, Ulf Soderblom - 1991, FLAC (image+.cue) lossless


 

[Цитировать]

Joonas Kokkonen - Symphony No.3; Opus sonorum; Requiem - Soile Isokoski, Walton Grönroos, Savonlinna Opera Festival Choir, Lahti Symphony Orchestra, Ulf Söderblom
Жанр: Classical
Страна-производитель диска: Sweden
Год издания диска: 1991
Издатель (лейбл): BIS
Номер по каталогу: BIS-CD-508
Дата записи: 1991
Аудиокодек: FLAC
Тип рипа: image+.cue
Битрейт аудио: lossless
Продолжительность: 71:19
Источник: собственный рип
Наличие сканов в содержимом раздачи: да
Треклист:
Joonas Kokkonen (1921-1996)
[1]-[4] Symphony No.3 (1967)
[5]-[7] Opus sonorum (1965)
[8]-[16] Requiem (1981)
Исполнители:
Soile Isokoski soprano
Walton Grönroos baritone
Savonlinna Opera Festival Choir
Lahti Symphony Orchestra
Ulf Söderblom
conductor

Лог создания рипа

Exact Audio Copy V1.0 beta 3 from 29. August 2011
EAC extraction logfile from 15. November 2014, 20:46
Lahti Symphony Orchestra, Ulf Soderblom / Kokkonen - Symphony No.3; Opus sonorum; Requiem
Used drive : HL-DT-STDVDRAM GU70N Adapter: 0 ID: 0
Read mode : Secure
Utilize accurate stream : Yes
Defeat audio cache : Yes
Make use of C2 pointers : No
Read offset correction : 48
Overread into Lead-In and Lead-Out : No
Fill up missing offset samples with silence : Yes
Delete leading and trailing silent blocks : No
Null samples used in CRC calculations : Yes
Used interface : Native Win32 interface for Win NT & 2000
Used output format : User Defined Encoder
Selected bitrate : 128 kBit/s
Quality : High
Add ID3 tag : No
Command line compressor : C:\Program Files (x86)\Exact Audio Copy\Flac\flac.exe
Additional command line options : -V -8 -T "Date=%year%" -T "Genre=%genre%" %source%
TOC of the extracted CD
Track | Start | Length | Start sector | End sector
---------------------------------------------------------
1 | 0:00.00 | 5:18.00 | 0 | 23849
2 | 5:18.00 | 2:52.00 | 23850 | 36749
3 | 8:10.00 | 3:46.00 | 36750 | 53699
4 | 11:56.00 | 8:49.00 | 53700 | 93374
5 | 20:45.00 | 3:29.22 | 93375 | 109071
6 | 24:14.22 | 4:55.60 | 109072 | 131256
7 | 29:10.07 | 3:39.68 | 131257 | 147749
8 | 32:50.00 | 7:28.62 | 147750 | 181411
9 | 40:18.62 | 2:50.13 | 181412 | 194174
10 | 43:09.00 | 5:19.00 | 194175 | 218099
11 | 48:28.00 | 3:41.00 | 218100 | 234674
12 | 52:09.00 | 2:15.00 | 234675 | 244799
13 | 54:24.00 | 3:42.00 | 244800 | 261449
14 | 58:06.00 | 4:39.00 | 261450 | 282374
15 | 62:45.00 | 3:07.00 | 282375 | 296399
16 | 65:52.00 | 5:25.00 | 296400 | 320774
Range status and errors
Selected range
Filename C:\temp\BIS-CD-0508 - Kokkonen - Symphony No.3; Opus sonorum; Requiem\Kokkonen - Symphony No.3; Opus sonorum; Requiem.wav
Peak level 98.8 %
Extraction speed 2.3 X
Range quality 100.0 %
Test CRC 49C31641
Copy CRC 49C31641
Copy OK
No errors occurred
AccurateRip summary
Track 1 cannot be verified as accurate (confidence 2) [E0C3A967], AccurateRip returned [6A04A0BD] (AR v2)
Track 2 cannot be verified as accurate (confidence 2) [05363052], AccurateRip returned [5160BB04] (AR v2)
Track 3 cannot be verified as accurate (confidence 2) [7E324449], AccurateRip returned [DBB71B55] (AR v2)
Track 4 cannot be verified as accurate (confidence 2) [E60725A3], AccurateRip returned [775A2EB9] (AR v2)
Track 5 cannot be verified as accurate (confidence 2) [6777EE71], AccurateRip returned [7C271CF9] (AR v2)
Track 6 cannot be verified as accurate (confidence 2) [F575D225], AccurateRip returned [44493F81] (AR v2)
Track 7 cannot be verified as accurate (confidence 2) [34926A83], AccurateRip returned [BC24E23C] (AR v2)
Track 8 cannot be verified as accurate (confidence 2) [4CB1A521], AccurateRip returned [D20D28BC] (AR v2)
Track 9 cannot be verified as accurate (confidence 2) [776F6BA6], AccurateRip returned [6265380B] (AR v2)
Track 10 cannot be verified as accurate (confidence 2) [52DE5794], AccurateRip returned [EF8A1512] (AR v2)
Track 11 cannot be verified as accurate (confidence 2) [3B8562E4], AccurateRip returned [DCC9ED68] (AR v2)
Track 12 cannot be verified as accurate (confidence 2) [D3B1073A], AccurateRip returned [33E4E454] (AR v2)
Track 13 cannot be verified as accurate (confidence 2) [294647F7], AccurateRip returned [71B77457] (AR v2)
Track 14 cannot be verified as accurate (confidence 2) [C7DD99C7], AccurateRip returned [24753F5E] (AR v2)
Track 15 cannot be verified as accurate (confidence 2) [6AE15391], AccurateRip returned [D9B1C21F] (AR v2)
Track 16 cannot be verified as accurate (confidence 2) [7FFFE59B], AccurateRip returned [32CA9CD9] (AR v2)
No tracks could be verified as accurate
You may have a different pressing from the one(s) in the database
End of status report
==== Log checksum F98FAD04CC79B0E4226C18E221D74C1E39DEC3C9321D0150980DC2DF33247B21 ====



Показать сообщения:    

Текущее время: 05-Дек 23:41

Часовой пояс: UTC + 3


Вы не можете начинать темы
Вы не можете отвечать на сообщения
Вы не можете редактировать свои сообщения
Вы не можете удалять свои сообщения
Вы не можете голосовать в опросах
Вы не можете прикреплять файлы к сообщениям
Вы не можете скачивать файлы