Примо / Primo (Ричард Уилсон / Richard Wilson) [2004 г., Великобритания, драма, моноспектакль, HDTVRip] Royal National Theatre VO (Светлана Малая / Никита Прозоровский)


 

[Цитировать]

Примо / Primo Название театра: Royal National Theatre (Королевский Национальный театр).
Год выпуска: 2004.
Страна: Великобритания .
Жанр: драма, моноспектакль.
Продолжительность: 01:23:08.
Перевод: Светлана Малая.
Озвучивание: Студийное (одноголосое закадровое) (Greb&Creative Group Company / Никита Прозоровский).
Cубтитры: нет.
Оригинальная аудио дорожка: нет.
Режиссер: Ричард Уилсон /Richard Wilson/.
Исполнитель: Энтони Шер.
Описание:
Драма о заключении итальянского поэта во время холокоста на основе книги Примо Леви "Человек ли это?".
Примо Леви - итальянский писатель, поэт и публицист. В двадцать четыре года он был депортирован в концлагерь. Знание немецкого языка, потребность нацистов в профессиональных химиках, пусть и еврейской национальности, молодость и, возможно, счастливая судьба помогли Леви выжить. Сразу после освобождения он написал книгу "Человек ли это?", считая своим долгом перед погибшими и непосвященными засвидетельствовать злодеяния фашистов.

Дополнительная информация:
Автор пьесы: Примо Леви.
Композитор: Джонатан Голдштейн.
Оператор-постановщик: Ян Вилсон.
Производство и дизайн костюмов: Хилдгард Бехтлер.
Фильм озвучил: Никита Прозоровский.
Режиссер озвучания: Елена Греб.
Звукорежиссер: Денис Малый.
Перевод: Светлана Малая.
Фильм озвучен студией "Greb&Creative Group Company" по заказу компании "A-Media TV".
Выпущено: Royal National Theatre (Королевский Национальный театр), HBO Films при сотрудничестве с BBC, Rainmark Films.

Релиз
Большое спасибо semenonn за исходный материал!!!

Качество: HDTVRip
Формат: AVI
Видео: 720x400 (1.80:1), 25 fps, DivX Codec 6.8.3 ~2199 kbps avg, 0.30 bit/pixel
Аудио: 48 kHz, MPEG Layer 3, 2 ch, ~128.00 kbps avg

Отчет MediaInfo

Общее
Полное имя : Primo_Royal.National.Theatre.2004.DivX.HDTVRip.fenixсlub.avi
Format : AVI
Format/Info : Audio Video Interleave
File size : 1.36 GiB
Duration : 1h 23mn
Overall bit rate : 2 337 Kbps
Writing library : VirtualDub build 32842/release
Video
ID : 0
Format : MPEG-4 Visual
Format settings, BVOP : 1
Format settings, QPel : No
Format settings, GMC : No warppoints
Format settings, Matrix : Default (H.263)
Muxing mode : Packed bitstream
Codec ID : DX50
Codec ID/Hint : DivX 5
Duration : 1h 23mn
Bit rate : 2 199 Kbps
Width : 720 pixels
Height : 400 pixels
Display aspect ratio : 16:9
Frame rate : 25.000 fps
Color space : YUV
Chroma subsampling : 4:2:0
Bit depth : 8 bits
Scan type : Progressive
Compression mode : Lossy
Bits/(Pixel*Frame) : 0.305
Stream size : 1.28 GiB (94%)
Writing library : DivX 6.8.3-6.8.4 (UTC 2008-06-07)
Audio
ID : 1
Format : MPEG Audio
Format version : Version 1
Format profile : Layer 3
Mode : Joint stereo
Mode extension : MS Stereo
Codec ID : 55
Codec ID/Hint : MP3
Duration : 1h 23mn
Bit rate mode : Constant
Bit rate : 128 Kbps
Channel(s) : 2 channels
Sampling rate : 48.0 KHz
Compression mode : Lossy
Stream size : 76.1 MiB (5%)
Alignment : Split accross interleaves
Interleave, duration : 40 ms (1.00 video frame)
Interleave, preload duration : 500 ms.

Скриншоты

Альтернативный хост




Показать сообщения:    

Текущее время: 03-Дек 12:33

Часовой пояс: UTC + 3


Вы не можете начинать темы
Вы не можете отвечать на сообщения
Вы не можете редактировать свои сообщения
Вы не можете удалять свои сообщения
Вы не можете голосовать в опросах
Вы не можете прикреплять файлы к сообщениям
Вы не можете скачивать файлы