Джеки без Кеннеди / Jackie sans Kennedy (Патрик Жёди / Patrick Jeudy) [2013, документальный, биографический, DVB] Original (Fre) + Sub (rus)


Статистика раздачи [Обновить пиров]
Размер:  1.67 GB   |    Зарегистрирован:  8 месяцев 20 дней   |    Скачан:  0 раз

Полного источника не было: Никогда

 
   
 
 
 

[Цитировать]

Джеки без Кеннеди
Jackie sans Kennedy- Дата/Год выпуска: 2013
Страна: Франция
Жанр: документальный, биографический
Продолжительность: 00:52:34
Перевод: Субтитры
Русские субтитры: есть
Формат субтитров: hardsub (неотключаемые)
Доп. информация о субтитрах: перевод И.Рыбкиной, Éclair Group
Оригинальная аудиодорожка: французский
Режиссер: Патрик Жёди / Patrick Jeudy
Телеканал: TV5MONDEОписание: "Никогда не опубликовывайте их". Джеки неоднократно давала такой наказ своим детям. Она напомнила об этом Кэролайн в день ее свадьбы. Она внезапно посерьезнела и сказала: "Никогда не публикуй их". Речь шла о записях, сделанных после смерти Джона Кеннеди, это размышления относительно мировой истории и истории ее жизни, а точнее, легенде, которую она придумала сама. Глубоким смыслом в этих записях наделено молчание дамы в розовом.
Постепенно жизнь вошла в свою колею, и Джеки сделала блестящую карьеру в Нью-Йорке в качестве издателя. Она умерла 19 мая 1994 года. Кэролайн сдержала обещание, данное матери. Но в 2011 году, когда был снят минисериал "Клан Кеннеди / The Kennedys", Кэролайн испугалась, что семейная легенда будет осквернена, и запретила показ фильма. В качестве компенсации она разрешила опубликовать магнитофонные записи разговоров, которые Джеки вела сама с собой, как в кабинете психоаналитика. (из предисловия к фильму)
Доп. информация: DVB-S

качество: DVB
формат: MKV
Видео: MPEG Video 2, 704x576@1024x576 (16:9), 25 fps, ~4257 kbps avg, 0.420 bit/pixel
Аудио: Французский (MPEG Audio 2, 2 ch, 48 kHz, ~192.00 kbps avg)

MediaInfo

Общее
Уникальный идентификатор : 218063310388759881070029183864804141851 (0xA40D7746DC3B66E0889F8F3C67CAEB1B)
Полное имя : E:\My Torrents 2\[apreder]Jackie_sans_Kennedy(2013)DVB.mkv
Формат : Matroska
Версия формата : Version 2
Размер файла : 1,67 Гбайт
Продолжительность : 52 м.
Режим общего битрейта : Переменный
Общий поток : 4539 Кбит/сек
Дата кодирования : UTC 2014-11-22 07:39:09
Программа кодирования : mkvmerge v7.3.0 ('Nouages') 64bit built on Oct 22 2014 18:53:34
Библиотека кодирования : libebml v1.3.0 + libmatroska v1.4.1
Видео
Идентификатор : 1
Формат : MPEG Video
Версия формата : Version 2
Профиль формата : Main@Main
Параметр BVOP формата : Нет
Параметр матрицы формата : Выборочная
Format_Settings_PictureStructure : Frame
Идентификатор кодека : V_MPEG2
Идентификатор кодека/Информация : MPEG 1 or 2 Video
Продолжительность : 52 м.
Вид битрейта : Переменный
Битрейт : 4257 Кбит/сек
Максимальный битрейт : 6985 Кбит/сек
Ширина : 704 пикселя
Высота : 576 пикселей
Соотношение сторон : 16:9
Режим частоты кадров : Постоянный
Частота кадров : 25,000 кадров/сек
Стандарт вещания : PAL
Цветовое пространство : YUV
Субдискретизация насыщенности : 4:2:0
Битовая глубина : 8 бит
Тип развёртки : Чересстрочная
Порядок развёртки : Верхнее поле первое
Метод сжатия : С потерями
Бит/(Пиксели*Кадры) : 0.420
Временной код первого кадра : 00:00:00:00
Оригинал временного кода : Group of pictures header
Размер потока : 1,56 Гбайт (94%)
Default : Да
Forced : Нет
Аудио
Идентификатор : 2
Формат : MPEG Audio
Версия формата : Version 1
Профиль формата : Layer 2
Идентификатор кодека : A_MPEG/L2
Идентификатор кодека/Подсказка : MP2
Продолжительность : 52 м.
Вид битрейта : Постоянный
Битрейт : 192 Кбит/сек
Каналы : 2 канала
Частота : 48,0 КГц
Метод сжатия : С потерями
Размер потока : 72,2 Мбайт (4%)
Язык : French
Default : Да
Forced : Нет

Скриншоты


Резервные скриншоты


-[1'926]
[teatrix.ru].t19513.torrent 
Торрент: Зарегистрирован [ 2016-03-18 12:44 ] · 96FEB34635858B3A1FE04C4D8CF76F4496CAB9B1

Скачать .torrent

Скачать

17 KB

Статус: проверено
Скачан: 0 раз
Размер: 1.67 GB
terms.php



Быстрый ответ

Имя:

      
Для отправки сообщений необходимо включить JavaScript
Показать сообщения:    

Текущее время: 07-Дек 15:30

Часовой пояс: UTC + 3


Вы можете начинать темы
Вы можете отвечать на сообщения
Вы не можете редактировать свои сообщения
Вы не можете удалять свои сообщения
Вы не можете голосовать в опросах
Вы не можете прикреплять файлы к сообщениям
Вы можете скачивать файлы