(Classical) Stravinsky-Le sacre du printemps/Стравинский-Весна священная, Bach/Stokowski-Bach Transcriptions (Yannick Nezet-Seguin) - 2013, FLAC (tracks+.cue) lossless


 

[Цитировать]

Stravinsky/Стравинский/Bach/Stokowski - Весна священная/Rite of Spring/Bach Transcriptions (Yannick Nezet-Seguin)
Жанр: Classical
Год издания диска: 2013
Издатель (лейбл): Deutsche Grammophon
Номер по каталогу: 4791074
Аудиокодек: FLAC
Тип рипа: tracks+.cue
Битрейт аудио: lossless
Продолжительность: 62 минуты
Источник: собственный рип
Треклист:
Stravinsky: Le Sacre du Printemps
1. Part 1: L'Adoration de la Terre - Introduction 3:21
2. Part 1: L'Adoration de la Terre - The Augurs Of Spring: Dances Of The Young Girls
3. Part 1: L'Adoration de la Terre - Ritual Of Abduction 1:16
4. Part 1: L'Adoration de la Terre - Spring Rounds 3:36
5. Part 1: L'Adoration de la Terre - Ritual Of The Rival Tribes 1:47
6. Part 1: L'Adoration de la Terre - Procession Of The Sage 0:40
7. Part 1: L'Adoration de la Terre - The Sage 0:24
8. Part 1: L'Adoration de la Terre - Dance Of The Earth 1:14
9. Part 2: Le Sacrifice - Introduction (Largo) 4:06
10. Part 2: Le Sacrifice - Mystical Circles Of The Young Girls 3:11
11. Part 2: Le Sacrifice - Glorification Of The Chosen One 1:30
12. Part 2: Le Sacrifice - Evocation Of The Ancestors 0:44
13. Part 2: Le Sacrifice - Ritual Action Of The Ancestors 3:25
14. Part 2: Le Sacrifice - Sacrificial Dance (The Chosen One) 4:41
J.S. Bach:
15. Toccata And Fugue In D Minor, BWV 565 - Arranged By Leopold Stokowski 10:04
16. Fugue in G Minor, BWV 578 "The Little" - Arranged By Leopold Stokowski 3:49
17. Passacaglia And Fugue In C Minor, BWV 582 - Arranged By Leopold Stokowski 12:38
Stravinsky:
18. Pastorale - Arranged By Leopold Stokowski 3:14
Исполнители:
Philadelphia Orchestra
Yannick Nézet-Séguin

Лог создания рипа

X Lossless Decoder version 20141109 (148.0)
XLD extraction logfile from 2014-11-16 00:27:46 +0500
Yannick Nézet-Séguin: Philadelphia Orchestra / Stravinsky: The Rite Of Spring; Stokowski: Bach Transcriptions
Used drive : ASUS SBW-06D2X-U (revision D501)
Media type : Pressed CD
Ripper mode : XLD Secure Ripper
Disable audio cache : OK for the drive with a cache less than 1375KiB
Make use of C2 pointers : NO
Read offset correction : 103
Max retry count : 20
Gap status : Analyzed, Appended (except HTOA)
TOC of the extracted CD
Track | Start | Length | Start sector | End sector
---------------------------------------------------------
1 | 00:00:00 | 03:21:44 | 0 | 15118
2 | 03:21:44 | 03:04:67 | 15119 | 28985
3 | 06:26:36 | 01:16:52 | 28986 | 34737
4 | 07:43:13 | 03:35:72 | 34738 | 50934
5 | 11:19:10 | 01:47:04 | 50935 | 58963
6 | 13:06:14 | 00:40:32 | 58964 | 61995
7 | 13:46:46 | 00:24:38 | 61996 | 63833
8 | 14:11:09 | 01:14:28 | 63834 | 69411
9 | 15:25:37 | 04:06:30 | 69412 | 87891
10 | 19:31:67 | 03:11:27 | 87892 | 102243
11 | 22:43:19 | 01:30:67 | 102244 | 109060
12 | 24:14:11 | 00:44:11 | 109061 | 112371
13 | 24:58:22 | 03:25:40 | 112372 | 127786
14 | 28:23:62 | 04:44:70 | 127787 | 149156
15 | 33:08:57 | 10:07:27 | 149157 | 194708
16 | 43:16:09 | 03:54:74 | 194709 | 212332
17 | 47:11:08 | 12:42:18 | 212333 | 269500
18 | 59:53:26 | 03:14:52 | 269501 | 284102
AccurateRip Summary (DiscID: 001f05f7-01ae697d-130ecc12)
Track 01 : OK (v1+v2, confidence 11/11)
Track 02 : OK (v1+v2, confidence 11/11)
Track 03 : OK (v1+v2, confidence 11/11)
Track 04 : OK (v1+v2, confidence 11/11)
Track 05 : OK (v1+v2, confidence 11/11)
Track 06 : OK (v1+v2, confidence 11/11)
Track 07 : OK (v1+v2, confidence 11/11)
Track 08 : OK (v1+v2, confidence 11/11)
Track 09 : OK (v1+v2, confidence 11/11)
Track 10 : OK (v1+v2, confidence 11/11)
Track 11 : OK (v1+v2, confidence 11/11)
Track 12 : OK (v1+v2, confidence 11/11)
Track 13 : OK (v1+v2, confidence 11/11)
Track 14 : OK (v1+v2, confidence 11/11)
Track 15 : OK (v1+v2, confidence 11/11)
Track 16 : OK (v1+v2, confidence 11/11)
Track 17 : OK (v1+v2, confidence 11/11)
Track 18 : OK (v1+v2, confidence 11/11)
->All tracks accurately ripped.
All Tracks
Statistics
Read error : 0
Jitter error (maybe fixed) : 0
Retry sector count : 0
Damaged sector count : 0
Track 01
Filename : /Volumes/Andy HD2/XLD/Stravinsky-The Rite Of Spring, Stokowski-Bach Transcriptions (Yannick Nezet-Seguin)/01.01 Yannick Nezet-Seguin. Philadelphia Orchestra - Stravinsky. The Rite Of Spring - Part 1. Introduction.flac
Pre-gap length : 00:02:00
CRC32 hash : CDF153AA
CRC32 hash (skip zero) : E512F4DC
AccurateRip v1 signature : E05443DA
AccurateRip v2 signature : 53B4DA78
->Accurately ripped (v1+v2, confidence 2+9/11)
Statistics
Read error : 0
Jitter error (maybe fixed) : 0
Retry sector count : 0
Damaged sector count : 0
Track 02
Filename : /Volumes/Andy HD2/XLD/Stravinsky-The Rite Of Spring, Stokowski-Bach Transcriptions (Yannick Nezet-Seguin)/01.02 Yannick Nezet-Seguin. Philadelphia Orchestra - Stravinsky. The Rite Of Spring - Part 1. Harbingers Of Spring.flac
CRC32 hash : F26A5463
CRC32 hash (skip zero) : 87D786F6
AccurateRip v1 signature : 66F30986
AccurateRip v2 signature : 8867CF56
->Accurately ripped (v1+v2, confidence 2+9/11)
Statistics
Read error : 0
Jitter error (maybe fixed) : 0
Retry sector count : 0
Damaged sector count : 0
Track 03
Filename : /Volumes/Andy HD2/XLD/Stravinsky-The Rite Of Spring, Stokowski-Bach Transcriptions (Yannick Nezet-Seguin)/01.03 Yannick Nezet-Seguin. Philadelphia Orchestra - Stravinsky. The Rite Of Spring - Part 1. Mock Abduction.flac
CRC32 hash : 004F3361
CRC32 hash (skip zero) : 770EAD7F
AccurateRip v1 signature : 24FC2EC9
AccurateRip v2 signature : 7075EEAD
->Accurately ripped (v1+v2, confidence 2+9/11)
Statistics
Read error : 0
Jitter error (maybe fixed) : 0
Retry sector count : 0
Damaged sector count : 0
Track 04
Filename : /Volumes/Andy HD2/XLD/Stravinsky-The Rite Of Spring, Stokowski-Bach Transcriptions (Yannick Nezet-Seguin)/01.04 Yannick Nezet-Seguin. Philadelphia Orchestra - Stravinsky. The Rite Of Spring - Part 1. Spring Rounds.flac
CRC32 hash : DB8C1888
CRC32 hash (skip zero) : 3C7307E4
AccurateRip v1 signature : 626BF65B
AccurateRip v2 signature : 6630B24A
->Accurately ripped (v1+v2, confidence 2+9/11)
Statistics
Read error : 0
Jitter error (maybe fixed) : 0
Retry sector count : 0
Damaged sector count : 0
Track 05
Filename : /Volumes/Andy HD2/XLD/Stravinsky-The Rite Of Spring, Stokowski-Bach Transcriptions (Yannick Nezet-Seguin)/01.05 Yannick Nezet-Seguin. Philadelphia Orchestra - Stravinsky. The Rite Of Spring - Part 1. Games Of The Rival Tribes.flac
CRC32 hash : CF7ED47B
CRC32 hash (skip zero) : 7F4EE615
AccurateRip v1 signature : C22E1698
AccurateRip v2 signature : 201CAF73
->Accurately ripped (v1+v2, confidence 2+9/11)
Statistics
Read error : 0
Jitter error (maybe fixed) : 0
Retry sector count : 0
Damaged sector count : 0
Track 06
Filename : /Volumes/Andy HD2/XLD/Stravinsky-The Rite Of Spring, Stokowski-Bach Transcriptions (Yannick Nezet-Seguin)/01.06 Yannick Nezet-Seguin. Philadelphia Orchestra - Stravinsky. The Rite Of Spring - Part 1. Procession Of The Wise Elder.flac
CRC32 hash : BF6758E6
CRC32 hash (skip zero) : 16D89447
AccurateRip v1 signature : EBC69469
AccurateRip v2 signature : 38FA04DC
->Accurately ripped (v1+v2, confidence 2+9/11)
Statistics
Read error : 0
Jitter error (maybe fixed) : 0
Retry sector count : 0
Damaged sector count : 0
Track 07
Filename : /Volumes/Andy HD2/XLD/Stravinsky-The Rite Of Spring, Stokowski-Bach Transcriptions (Yannick Nezet-Seguin)/01.07 Yannick Nezet-Seguin. Philadelphia Orchestra - Stravinsky. The Rite Of Spring - Part 1. Adoration Of The Earth.flac
CRC32 hash : 7BD7C11A
CRC32 hash (skip zero) : 04CEBBC0
AccurateRip v1 signature : B1655546
AccurateRip v2 signature : 13783D48
->Accurately ripped (v1+v2, confidence 2+9/11)
Statistics
Read error : 0
Jitter error (maybe fixed) : 0
Retry sector count : 0
Damaged sector count : 0
Track 08
Filename : /Volumes/Andy HD2/XLD/Stravinsky-The Rite Of Spring, Stokowski-Bach Transcriptions (Yannick Nezet-Seguin)/01.08 Yannick Nezet-Seguin. Philadelphia Orchestra - Stravinsky. The Rite Of Spring - Part 1. Dance Of The Earth.flac
CRC32 hash : 9616C21E
CRC32 hash (skip zero) : BE739713
AccurateRip v1 signature : FF61CFEB
AccurateRip v2 signature : E9BC523C
->Accurately ripped (v1+v2, confidence 2+9/11)
Statistics
Read error : 0
Jitter error (maybe fixed) : 0
Retry sector count : 0
Damaged sector count : 0
Track 09
Filename : /Volumes/Andy HD2/XLD/Stravinsky-The Rite Of Spring, Stokowski-Bach Transcriptions (Yannick Nezet-Seguin)/01.09 Yannick Nezet-Seguin. Philadelphia Orchestra - Stravinsky. The Rite Of Spring - Part 2. Introduction.flac
CRC32 hash : 2061C4D0
CRC32 hash (skip zero) : 9FCC1358
AccurateRip v1 signature : 4D8A93F3
AccurateRip v2 signature : EB1F6CAF
->Accurately ripped (v1+v2, confidence 2+9/11)
Statistics
Read error : 0
Jitter error (maybe fixed) : 0
Retry sector count : 0
Damaged sector count : 0
Track 10
Filename : /Volumes/Andy HD2/XLD/Stravinsky-The Rite Of Spring, Stokowski-Bach Transcriptions (Yannick Nezet-Seguin)/01.10 Yannick Nezet-Seguin. Philadelphia Orchestra - Stravinsky. The Rite Of Spring - Part 2. Mystic Circles Of The Young Girls.flac
CRC32 hash : 860EFBA4
CRC32 hash (skip zero) : 0A01D7EB
AccurateRip v1 signature : D70F6406
AccurateRip v2 signature : 2519D330
->Accurately ripped (v1+v2, confidence 2+9/11)
Statistics
Read error : 0
Jitter error (maybe fixed) : 0
Retry sector count : 0
Damaged sector count : 0
Track 11
Filename : /Volumes/Andy HD2/XLD/Stravinsky-The Rite Of Spring, Stokowski-Bach Transcriptions (Yannick Nezet-Seguin)/01.11 Yannick Nezet-Seguin. Philadelphia Orchestra - Stravinsky. The Rite Of Spring - Part 2. Glorification Of The Chosen One.flac
CRC32 hash : C0D41186
CRC32 hash (skip zero) : 71D33C03
AccurateRip v1 signature : 16E2703C
AccurateRip v2 signature : 425131DB
->Accurately ripped (v1+v2, confidence 2+9/11)
Statistics
Read error : 0
Jitter error (maybe fixed) : 0
Retry sector count : 0
Damaged sector count : 0
Track 12
Filename : /Volumes/Andy HD2/XLD/Stravinsky-The Rite Of Spring, Stokowski-Bach Transcriptions (Yannick Nezet-Seguin)/01.12 Yannick Nezet-Seguin. Philadelphia Orchestra - Stravinsky. The Rite Of Spring - Part 2. Evocation Of The Ancestors.flac
CRC32 hash : 295E5982
CRC32 hash (skip zero) : C5B3E6AB
AccurateRip v1 signature : 41C6AFDA
AccurateRip v2 signature : 700C36D2
->Accurately ripped (v1+v2, confidence 2+9/11)
Statistics
Read error : 0
Jitter error (maybe fixed) : 0
Retry sector count : 0
Damaged sector count : 0
Track 13
Filename : /Volumes/Andy HD2/XLD/Stravinsky-The Rite Of Spring, Stokowski-Bach Transcriptions (Yannick Nezet-Seguin)/01.13 Yannick Nezet-Seguin. Philadelphia Orchestra - Stravinsky. The Rite Of Spring - Part 2. Ritual Action Of The Ancestors.flac
CRC32 hash : BE9E5A1B
CRC32 hash (skip zero) : 95D4DFD5
AccurateRip v1 signature : 7CF33ECF
AccurateRip v2 signature : BB8AEF2A
->Accurately ripped (v1+v2, confidence 2+9/11)
Statistics
Read error : 0
Jitter error (maybe fixed) : 0
Retry sector count : 0
Damaged sector count : 0
Track 14
Filename : /Volumes/Andy HD2/XLD/Stravinsky-The Rite Of Spring, Stokowski-Bach Transcriptions (Yannick Nezet-Seguin)/01.14 Yannick Nezet-Seguin. Philadelphia Orchestra - Stravinsky. The Rite Of Spring - Part 2. Sacrificial Dance.flac
CRC32 hash : 87CC8A2F
CRC32 hash (skip zero) : 8E2F4478
AccurateRip v1 signature : 638423A3
AccurateRip v2 signature : 8A9FB1F9
->Accurately ripped (v1+v2, confidence 2+9/11)
Statistics
Read error : 0
Jitter error (maybe fixed) : 0
Retry sector count : 0
Damaged sector count : 0
Track 15
Filename : /Volumes/Andy HD2/XLD/Stravinsky-The Rite Of Spring, Stokowski-Bach Transcriptions (Yannick Nezet-Seguin)/01.15 Yannick Nezet-Seguin. Philadelphia Orchestra - Bach-Stockowski. Toccata & Fugue In D Minor, BWV 565.flac
Pre-gap length : 00:03:52
CRC32 hash : 516DD0BC
CRC32 hash (skip zero) : 046B5409
AccurateRip v1 signature : 93071A8B
AccurateRip v2 signature : 48A36793
->Accurately ripped (v1+v2, confidence 2+9/11)
Statistics
Read error : 0
Jitter error (maybe fixed) : 0
Retry sector count : 0
Damaged sector count : 0
Track 16
Filename : /Volumes/Andy HD2/XLD/Stravinsky-The Rite Of Spring, Stokowski-Bach Transcriptions (Yannick Nezet-Seguin)/01.16 Yannick Nezet-Seguin. Philadelphia Orchestra - Bach-Stockowski. Fugue in G Minor, BWV 578, "Little".flac
Pre-gap length : 00:02:35
CRC32 hash : 27C5A657
CRC32 hash (skip zero) : 4AB04517
AccurateRip v1 signature : 2F0D563B
AccurateRip v2 signature : 3E01D964
->Accurately ripped (v1+v2, confidence 2+9/11)
Statistics
Read error : 0
Jitter error (maybe fixed) : 0
Retry sector count : 0
Damaged sector count : 0
Track 17
Filename : /Volumes/Andy HD2/XLD/Stravinsky-The Rite Of Spring, Stokowski-Bach Transcriptions (Yannick Nezet-Seguin)/01.17 Yannick Nezet-Seguin. Philadelphia Orchestra - Bach-Stockowski. Passacaglia & Fugue In C Minor, BWV 582.flac
Pre-gap length : 00:05:38
CRC32 hash : C3B65A1E
CRC32 hash (skip zero) : 5AB21C9E
AccurateRip v1 signature : FB578DCC
AccurateRip v2 signature : 86373445
->Accurately ripped (v1+v2, confidence 2+9/11)
Statistics
Read error : 0
Jitter error (maybe fixed) : 0
Retry sector count : 0
Damaged sector count : 0
Track 18
Filename : /Volumes/Andy HD2/XLD/Stravinsky-The Rite Of Spring, Stokowski-Bach Transcriptions (Yannick Nezet-Seguin)/01.18 Yannick Nezet-Seguin. Philadelphia Orchestra - Bach-Stockowski. Pastorale.flac
Pre-gap length : 00:03:25
CRC32 hash : 87F15320
CRC32 hash (skip zero) : 32B8DC83
AccurateRip v1 signature : CDBB34C2
AccurateRip v2 signature : C9E4A236
->Accurately ripped (v1+v2, confidence 2+9/11)
Statistics
Read error : 0
Jitter error (maybe fixed) : 0
Retry sector count : 0
Damaged sector count : 0
No errors occurred
End of status report

Содержание индексной карты (.CUE)

TITLE "Stravinsky: The Rite Of Spring; Stokowski: Bach Transcriptions"
PERFORMER "Yannick Nézet-Séguin: Philadelphia Orchestra"
CATALOG 0028947910749
REM GENRE "Classical"
REM DATE "2013"
REM DISCNUMBER 1
REM TOTALDISCS 1
REM DISCID 130ECC12
FILE "01.01 Yannick Nezet-Seguin. Philadelphia Orchestra - Stravinsky. The Rite Of Spring - Part 1. Introduction.flac" WAVE
TRACK 01 AUDIO
TITLE "Stravinsky: The Rite Of Spring - Part 1: Introduction"
SONGWRITER "Igor Stravinsky"
ISRC DEN961330501
INDEX 01 00:00:00
FILE "01.02 Yannick Nezet-Seguin. Philadelphia Orchestra - Stravinsky. The Rite Of Spring - Part 1. Harbingers Of Spring.flac" WAVE
TRACK 02 AUDIO
TITLE "Stravinsky: The Rite Of Spring - Part 1: Harbingers Of Spring"
SONGWRITER "Igor Stravinsky"
ISRC DEN961330502
INDEX 01 00:00:00
FILE "01.03 Yannick Nezet-Seguin. Philadelphia Orchestra - Stravinsky. The Rite Of Spring - Part 1. Mock Abduction.flac" WAVE
TRACK 03 AUDIO
TITLE "Stravinsky: The Rite Of Spring - Part 1: Mock Abduction"
SONGWRITER "Igor Stravinsky"
ISRC DEN961330503
INDEX 01 00:00:00
FILE "01.04 Yannick Nezet-Seguin. Philadelphia Orchestra - Stravinsky. The Rite Of Spring - Part 1. Spring Rounds.flac" WAVE
TRACK 04 AUDIO
TITLE "Stravinsky: The Rite Of Spring - Part 1: Spring Rounds"
SONGWRITER "Igor Stravinsky"
ISRC DEN961330504
INDEX 01 00:00:00
FILE "01.05 Yannick Nezet-Seguin. Philadelphia Orchestra - Stravinsky. The Rite Of Spring - Part 1. Games Of The Rival Tribes.flac" WAVE
TRACK 05 AUDIO
TITLE "Stravinsky: The Rite Of Spring - Part 1: Games Of The Rival Tribes"
SONGWRITER "Igor Stravinsky"
ISRC DEN961330505
INDEX 01 00:00:00
FILE "01.06 Yannick Nezet-Seguin. Philadelphia Orchestra - Stravinsky. The Rite Of Spring - Part 1. Procession Of The Wise Elder.flac" WAVE
TRACK 06 AUDIO
TITLE "Stravinsky: The Rite Of Spring - Part 1: Procession Of The Wise Elder"
SONGWRITER "Igor Stravinsky"
ISRC DEN961330506
INDEX 01 00:00:00
FILE "01.07 Yannick Nezet-Seguin. Philadelphia Orchestra - Stravinsky. The Rite Of Spring - Part 1. Adoration Of The Earth.flac" WAVE
TRACK 07 AUDIO
TITLE "Stravinsky: The Rite Of Spring - Part 1: Adoration Of The Earth"
SONGWRITER "Igor Stravinsky"
ISRC DEN961330507
INDEX 01 00:00:00
FILE "01.08 Yannick Nezet-Seguin. Philadelphia Orchestra - Stravinsky. The Rite Of Spring - Part 1. Dance Of The Earth.flac" WAVE
TRACK 08 AUDIO
TITLE "Stravinsky: The Rite Of Spring - Part 1: Dance Of The Earth"
SONGWRITER "Igor Stravinsky"
ISRC DEN961330508
INDEX 01 00:00:00
FILE "01.09 Yannick Nezet-Seguin. Philadelphia Orchestra - Stravinsky. The Rite Of Spring - Part 2. Introduction.flac" WAVE
TRACK 09 AUDIO
TITLE "Stravinsky: The Rite Of Spring - Part 2: Introduction"
SONGWRITER "Igor Stravinsky"
ISRC DEN961330509
INDEX 01 00:00:00
FILE "01.10 Yannick Nezet-Seguin. Philadelphia Orchestra - Stravinsky. The Rite Of Spring - Part 2. Mystic Circles Of The Young Girls.flac" WAVE
TRACK 10 AUDIO
TITLE "Stravinsky: The Rite Of Spring - Part 2: Mystic Circles Of The Young Girls"
SONGWRITER "Igor Stravinsky"
ISRC DEN961330510
INDEX 01 00:00:00
FILE "01.11 Yannick Nezet-Seguin. Philadelphia Orchestra - Stravinsky. The Rite Of Spring - Part 2. Glorification Of The Chosen One.flac" WAVE
TRACK 11 AUDIO
TITLE "Stravinsky: The Rite Of Spring - Part 2: Glorification Of The Chosen One"
SONGWRITER "Igor Stravinsky"
ISRC DEN961330511
INDEX 01 00:00:00
FILE "01.12 Yannick Nezet-Seguin. Philadelphia Orchestra - Stravinsky. The Rite Of Spring - Part 2. Evocation Of The Ancestors.flac" WAVE
TRACK 12 AUDIO
TITLE "Stravinsky: The Rite Of Spring - Part 2: Evocation Of The Ancestors"
SONGWRITER "Igor Stravinsky"
ISRC DEN961330512
INDEX 01 00:00:00
FILE "01.13 Yannick Nezet-Seguin. Philadelphia Orchestra - Stravinsky. The Rite Of Spring - Part 2. Ritual Action Of The Ancestors.flac" WAVE
TRACK 13 AUDIO
TITLE "Stravinsky: The Rite Of Spring - Part 2: Ritual Action Of The Ancestors"
SONGWRITER "Igor Stravinsky"
ISRC DEN961330513
INDEX 01 00:00:00
FILE "01.14 Yannick Nezet-Seguin. Philadelphia Orchestra - Stravinsky. The Rite Of Spring - Part 2. Sacrificial Dance.flac" WAVE
TRACK 14 AUDIO
TITLE "Stravinsky: The Rite Of Spring - Part 2: Sacrificial Dance"
SONGWRITER "Igor Stravinsky"
ISRC DEN961330514
INDEX 01 00:00:00
TRACK 15 AUDIO
TITLE "Bach/Stockowski: Toccata & Fugue In D Minor, BWV 565"
SONGWRITER "Johann Sebastian Bach"
ISRC DEN961300650
INDEX 00 04:41:18
FILE "01.15 Yannick Nezet-Seguin. Philadelphia Orchestra - Bach-Stockowski. Toccata & Fugue In D Minor, BWV 565.flac" WAVE
INDEX 01 00:00:00
TRACK 16 AUDIO
TITLE "Bach/Stockowski: Fugue in G Minor, BWV 578, "Little""
SONGWRITER "Johann Sebastian Bach"
ISRC DEN961300660
INDEX 00 10:04:67
FILE "01.16 Yannick Nezet-Seguin. Philadelphia Orchestra - Bach-Stockowski. Fugue in G Minor, BWV 578, "Little".flac" WAVE
INDEX 01 00:00:00
TRACK 17 AUDIO
TITLE "Bach/Stockowski: Passacaglia & Fugue In C Minor, BWV 582"
SONGWRITER "Johann Sebastian Bach"
ISRC DEN961300670
INDEX 00 03:49:36
FILE "01.17 Yannick Nezet-Seguin. Philadelphia Orchestra - Bach-Stockowski. Passacaglia & Fugue In C Minor, BWV 582.flac" WAVE
INDEX 01 00:00:00
TRACK 18 AUDIO
TITLE "Bach/Stockowski: Pastorale"
SONGWRITER "Johann Sebastian Bach"
ISRC DEN961300680
INDEX 00 12:38:68
FILE "01.18 Yannick Nezet-Seguin. Philadelphia Orchestra - Bach-Stockowski. Pastorale.flac" WAVE
INDEX 01 00:00:00



Показать сообщения:    

Текущее время: 09-Дек 12:41

Часовой пояс: UTC + 3


Вы не можете начинать темы
Вы не можете отвечать на сообщения
Вы не можете редактировать свои сообщения
Вы не можете удалять свои сообщения
Вы не можете голосовать в опросах
Вы не можете прикреплять файлы к сообщениям
Вы не можете скачивать файлы