(Classical) Mahler - Symphony No. 4 in G major(Budapest Festival Orchestra, Miah Persson, Ivan Fischer) - 2009, FLAC (tracks+.cue) lossless


 

[Цитировать]

Gustav Mahler - Symphony No. 4 in G major(Budapest Festival Orchestra, Miah Persson, Ivan Fischer)
Жанр: Classical
Год издания диска: 2009
Издатель (лейбл): Channel Classics
Аудиокодек: FLAC
Тип рипа: tracks+.cue
Битрейт аудио: lossless
Продолжительность: 57 минут
Источник: собственный рип
Треклист:
Symphony No. 4 in G major
1. Bedächtig. Nicht Eilen.
2. In Gemächlicher Bewungen, Ohne Hast.
3. Ruhevoll
4. Sehr Behaglich
Исполнители:
Budapest Festival Orchestra
Ivan Fischer - Conductor
Miah Persson - soprano

Лог создания рипа

X Lossless Decoder version 20141109 (148.0)
XLD extraction logfile from 2014-11-20 19:35:39 +0500
Miah Persson; Iván Fischer: Budapest Festival Orchestra / Mahler: Symphony #4 In G
Used drive : ASUS SBW-06D2X-U (revision D501)
Media type : Pressed CD
Ripper mode : XLD Secure Ripper
Disable audio cache : OK for the drive with a cache less than 1375KiB
Make use of C2 pointers : NO
Read offset correction : 103
Max retry count : 20
Gap status : Analyzed, Appended (except HTOA)
TOC of the extracted CD
Track | Start | Length | Start sector | End sector
---------------------------------------------------------
1 | 00:00:00 | 17:00:01 | 0 | 76500
2 | 17:00:01 | 09:35:54 | 76501 | 119679
3 | 26:35:55 | 21:52:07 | 119680 | 218086
4 | 48:27:62 | 08:35:41 | 218087 | 256752
List of alternate offset correction values
# | Absolute | Relative | Confidence
------------------------------------------
1 | 738 | 635 | 62
AccurateRip Summary (DiscID: 000a3d2d-0028b67c-310d5f04)
Track 01 : OK (v1+v2, confidence 61/61, with different offset)
Track 02 : OK (v1+v2, confidence 62/62, with different offset)
Track 03 : OK (v1+v2, confidence 62/62, with different offset)
Track 04 : OK (v1+v2, confidence 62/62, with different offset)
->All tracks accurately ripped.
All Tracks
Statistics
Read error : 0
Jitter error (maybe fixed) : 0
Retry sector count : 0
Damaged sector count : 0
Track 01
Filename : /Volumes/Andy HD2/XLD/Mahler - Symphony #4 In G (Ivan Fischer)/01.01 Ivan Fischer. Budapest Festival Orchestra - Mahler. Symphony #4 In G - 1. Bedachtig. Nicht Eilen..flac
Pre-gap length : 00:02:00
CRC32 hash : A64AC9E7
CRC32 hash (skip zero) : A5F280D7
AccurateRip v1 signature : E43FF408 (14CD2178 w/correction)
AccurateRip v2 signature : A2556CEF (34A5536B w/correction)
->Accurately ripped with different offset (v1+v2, confidence 29+32/61, offset +635)
Statistics
Read error : 0
Jitter error (maybe fixed) : 0
Retry sector count : 0
Damaged sector count : 0
Track 02
Filename : /Volumes/Andy HD2/XLD/Mahler - Symphony #4 In G (Ivan Fischer)/01.02 Ivan Fischer. Budapest Festival Orchestra - Mahler. Symphony #4 In G - 2. In Gemachlicher Bewungen, Ohne Hast..flac
Pre-gap length : 00:09:12
CRC32 hash : 8EBC7948
CRC32 hash (skip zero) : 21E19B32
AccurateRip v1 signature : AE27B3CC (FAF6A47F w/correction)
AccurateRip v2 signature : FC0F205D (3DE5BA63 w/correction)
->Accurately ripped with different offset (v1+v2, confidence 30+32/62, offset +635)
Statistics
Read error : 0
Jitter error (maybe fixed) : 0
Retry sector count : 0
Damaged sector count : 0
Track 03
Filename : /Volumes/Andy HD2/XLD/Mahler - Symphony #4 In G (Ivan Fischer)/01.03 Ivan Fischer. Budapest Festival Orchestra - Mahler. Symphony #4 In G - 3. Ruhevoll.flac
Pre-gap length : 00:08:57
CRC32 hash : 02942997
CRC32 hash (skip zero) : CFE31075
AccurateRip v1 signature : 599F7047 (A71520F7 w/correction)
AccurateRip v2 signature : 1E622EA2 (F2242831 w/correction)
->Accurately ripped with different offset (v1+v2, confidence 30+32/62, offset +635)
Statistics
Read error : 0
Jitter error (maybe fixed) : 0
Retry sector count : 0
Damaged sector count : 0
Track 04
Filename : /Volumes/Andy HD2/XLD/Mahler - Symphony #4 In G (Ivan Fischer)/01.04 Miah Persson; Ivan Fischer. Budapest Festival Orchestra - Mahler. Symphony #4 In G - 4. Sehr Behaglich.flac
CRC32 hash : C4AE0653
CRC32 hash (skip zero) : D5EA4958
AccurateRip v1 signature : 53D1F6B8 (E7DA25A6 w/correction)
AccurateRip v2 signature : 00018BA1 (75D78B33 w/correction)
->Accurately ripped with different offset (v1+v2, confidence 30+32/62, offset +635)
Statistics
Read error : 0
Jitter error (maybe fixed) : 0
Retry sector count : 0
Damaged sector count : 0
No errors occurred
End of status report

Содержание индексной карты (.CUE)

TITLE "Mahler: Symphony #4 In G"
PERFORMER "Miah Persson; Iván Fischer: Budapest Festival Orchestra"
REM GENRE "Classical"
REM DATE "2009"
REM DISCNUMBER 1
REM TOTALDISCS 1
REM DISCID 310D5F04
REM COMPILATION TRUE
FILE "01.01 Ivan Fischer. Budapest Festival Orchestra - Mahler. Symphony #4 In G - 1. Bedachtig. Nicht Eilen..flac" WAVE
TRACK 01 AUDIO
TITLE "Mahler: Symphony #4 In G - 1. Bedächtig. Nicht Eilen."
PERFORMER "Iván Fischer: Budapest Festival Orchestra"
SONGWRITER "Gustav Mahler/Mahler (Gustav)"
INDEX 01 00:00:00
TRACK 02 AUDIO
TITLE "Mahler: Symphony #4 In G - 2. In Gemächlicher Bewungen, Ohne Hast."
PERFORMER "Iván Fischer: Budapest Festival Orchestra"
SONGWRITER "Gustav Mahler/Mahler (Gustav)"
INDEX 00 16:50:64
FILE "01.02 Ivan Fischer. Budapest Festival Orchestra - Mahler. Symphony #4 In G - 2. In Gemachlicher Bewungen, Ohne Hast..flac" WAVE
INDEX 01 00:00:00
TRACK 03 AUDIO
TITLE "Mahler: Symphony #4 In G - 3. Ruhevoll"
PERFORMER "Iván Fischer: Budapest Festival Orchestra"
SONGWRITER "Gustav Mahler/Mahler (Gustav)"
INDEX 00 09:26:72
FILE "01.03 Ivan Fischer. Budapest Festival Orchestra - Mahler. Symphony #4 In G - 3. Ruhevoll.flac" WAVE
INDEX 01 00:00:00
FILE "01.04 Miah Persson; Ivan Fischer. Budapest Festival Orchestra - Mahler. Symphony #4 In G - 4. Sehr Behaglich.flac" WAVE
TRACK 04 AUDIO
TITLE "Mahler: Symphony #4 In G - 4. Sehr Behaglich"
PERFORMER "Miah Persson; Iván Fischer: Budapest Festival Orchestra"
SONGWRITER "Gustav Mahler/Mahler (Gustav)"
INDEX 01 00:00:00



Показать сообщения:    

Текущее время: 05-Дек 19:39

Часовой пояс: UTC + 3


Вы не можете начинать темы
Вы не можете отвечать на сообщения
Вы не можете редактировать свои сообщения
Вы не можете удалять свои сообщения
Вы не можете голосовать в опросах
Вы не можете прикреплять файлы к сообщениям
Вы не можете скачивать файлы