Великий мистификатор. Казимир Малевич (Екатерина Тютина) [2014, Документальный, биография, живопись, история, SATRip]


Статистика раздачи [Обновить пиров]
Размер:  601 MB   |    Зарегистрирован:  8 месяцев 22 дня   |    Скачан:  0 раз

Полного источника не было: Никогда

 
   
 
 
 

[Цитировать]

Великий мистификатор. Казимир Малевич
Дата/Год выпуска: 2014
Страна: Россия
Жанр: Документальный, биография, живопись, история
Продолжительность: 00:38:23
Перевод: Не требуется
Русские субтитры: нет
Режиссер: Екатерина Тютина
Телеканал: ТК "Культура"
Описание: Он всегда принадлежал к тем художникам, которые не столько отражают эпоху, сколько создают ее. Он и импрессионист, и символист, и неопримитивист, кубофутурист, конструктивист, - чуть ли не все, что оканчивается на суффикс «ист» в русском авангарде, можно отнести к нему. А основные вехи его творческого пути соответствуют главным этапам развития русского авангарда. Это новое оригинальное направление в русском искусстве XX века оказало громадное влияние на всё визуальное искусство России и Запада, а его создателю принесло поистине мировую славу.
Сэмпл: http://multi-up.com/1015025
качество: SATRip
формат: AVI
Видео: 720x544 (1.32:1), 25 fps, XviD 73 ~1985 kbps avg, 0.20 bit/pixel
Аудио: 48 kHz, AC3 Dolby Digital, 2/0 (L,R) ch, ~192 kbps

MediaInfo

General
Complete name : E:\Pshichko66\Na zapis'\Документальные фильмы\Velikij mistifikator Kazimir Malevich.avi
Format : AVI
Format/Info : Audio Video Interleave
File size : 601 MiB
Duration : 38mn 23s
Overall bit rate : 2 187 Kbps
Writing application : VirtualDubMod 1.5.10.2 (build 2540/release)
Writing library : VirtualDubMod build 2540/release
Video
ID : 0
Format : MPEG-4 Visual
Format profile : Advanced Simple@L5
Format settings, BVOP : 2
Format settings, QPel : No
Format settings, GMC : No warppoints
Format settings, Matrix : Custom
Codec ID : XVID
Codec ID/Hint : XviD
Duration : 38mn 23s
Bit rate : 1 986 Kbps
Width : 720 pixels
Height : 544 pixels
Display aspect ratio : 4:3
Frame rate : 25.000 fps
Color space : YUV
Chroma subsampling : 4:2:0
Bit depth : 8 bits
Scan type : Progressive
Compression mode : Lossy
Bits/(Pixel*Frame) : 0.203
Stream size : 545 MiB (91%)
Writing library : XviD 73
Audio
ID : 1
Format : AC-3
Format/Info : Audio Coding 3
Mode extension : CM (complete main)
Format settings, Endianness : Big
Codec ID : 2000
Duration : 38mn 23s
Bit rate mode : Constant
Bit rate : 192 Kbps
Channel count : 2 channels
Channel positions : Front: L R
Sampling rate : 48.0 KHz
Bit depth : 16 bits
Compression mode : Lossy
Stream size : 52.7 MiB (9%)
Alignment : Split accross interleaves
Interleave, duration : 40 ms (1.00 video frame)
Interleave, preload duration : 500 ms

Скриншоты

[teatrix.ru].t19519.torrent 
Торрент: Зарегистрирован [ 2016-03-18 12:35 ] · DB8833A74FB1713063E3719887CF89202A37B644

Скачать .torrent

Скачать

12 KB

Статус: проверено
Скачан: 0 раз
Размер: 601 MB
terms.php



Быстрый ответ

Имя:

      
Для отправки сообщений необходимо включить JavaScript
Показать сообщения:    

Текущее время: 10-Дек 00:19

Часовой пояс: UTC + 3


Вы можете начинать темы
Вы можете отвечать на сообщения
Вы не можете редактировать свои сообщения
Вы не можете удалять свои сообщения
Вы не можете голосовать в опросах
Вы не можете прикреплять файлы к сообщениям
Вы можете скачивать файлы