(Opera) Мусоргский - Борис Годунов/Mussorgsky - Boris Godunov (Ghiaurov, Spiess, Baldani, Reshetin-Orchestra Sinfonica di Roma della RAI, Khaikin/Хайкин 1972) * Bonus:Boris Godunov (Brambarov, Ghiaurov-Naidenov 1959) - 2006, APE (image+.cue) lossless


 

[Цитировать]

Modest Mussorgsky - Boris Godunov
Жанр: Opera
Страна-производитель диска: Portugal
Год издания диска: 2006
Издатель (лейбл): Gala
Номер по каталогу: GL100626
Дата записи: 1972-1959
Аудиокодек: APE
Тип рипа: image+.cue
Битрейт аудио: lossless
Продолжительность: 66'28+74'48+74'05
Источник: собственный рип
Наличие сканов в содержимом раздачи: да
Треклист:

CD1

1. Prologue: Wake up there! Have you frozen into statues?
2. Why forsake us and leave us helpless, great boyar?
3. Mitiukh! Hey, Mitiukh, why should we shout?
4. 0 ye Orthodox! The boyar spurns our wishes!
5. Glory to Thee our Lord, Creator of Heaven and earth
6. Long life to our Tsar Boris Feodorovich!
7. My soul is sad! A secret terror haunts me
8. Act 1: Still one more tale. The final chapter opens
9. Lord, our Heavenly Father, have mercy on Thy slaves
10. Don't grieve that you renounced the world of sin 50 early
11. Once I caught a duck, what a stroke of luck!
12. Why are you 50 miserabie, young fellow?
13. By the walls of Kazan the mighty fortress
14. He walks along, walks all dav long
15. God-fearing mendicants
16. At the cloister of Chudov

CD2

1. Act 2: Where are you, dearest, where are you, beloved?
2. While the gnat was chopping wood
3. Here's a song to make people laugh
4. Mercy! What is this?
5. I stand supreme in power
6. What is it?
7. Most mighty Lord and tsar, my homage!
8. Ugh! Give me air! I suffocate in here
9. Act 3: By Visia's blue waters
10. No more, pray!
11. Ah! Life is tedious! Yes, so tedious!
12. Ah! It is you, holy father!
13. Your beauty must serve to bewitch the pretender!
14. Midnight... the grove...by the fountain
15. Tsarevich!...What, you again!
16. Lies? I lie? Could I lie to you, Tsarevich?
17. Tsarevich, I am but a priest, a servant of God
18. How can I believe you love me, marquis?
19. Oh, that crafty Jesuit!
20. Dimitri! Tsarevich! Dimitri!
21. 0 Tsarevich, I implore you

CD3

1. Act4: What, has the service finished?
2. Trrr, trrr, trrr, trrr! Your hat's made of tin
3. Merciful, gracious Tsar, give alms for Our Lord's sake
4. Come, let's put it to the vote, your lordship
5. I fear I've kept you somewhat
6. Who says the child was rnurdered?
7. One evening, when all was still
8. Farewell, my son, lam dying
9. Hark! 'T is the knellof death!
10. Let's put him here, and sit him on this log a moment
11. Darkness has swallowed sun and moon
12. Hurrah! Casting off our chains of bondage
13. Domine, Domine, salvum fac Regem
14. Hail to our Tsar most glorious, whom God has saved for us!
15. Tears are flowing, tears of blood flowing
Modest Mussorgsky - Boris Godunov
Boris - Nicolai Ghiaurov
Grigory (False Dmitry) - Ludovic Spiess
Marina - Ruza Baldani
Pimen - Mark Reshetin
Varlaam - Alexander Vedernikov
Shuisky - Ljubomir Bodurov
Missail - Florindo Andreolli
Rangoni - Anton Diakov
Fyodor - Elena Zilio
Xenia - Rita Talarcio
Hostess - Erszébet Komlóssy
Simpleton - Anton Grigoriev
Tchelkalov - Nikola Mitic
Krushchov - Tommaso Frascati
Nurse - Biserka Cvejic
Mityukha - Teodoro Rovetta
Cherniovsky - Mario Chiappi
Frontier Guard - Carlo Zardo
Coro di Roma delle RAI
Orchestra Sinfonica di Roma della RAI
Boris Khaikin
performed in Russian
Recorded in Rome, May 1972
Bonus:
Modest Mussorgsky - Boris Godunov
(Sung in Bulgarian)
Boris Godunov - Christo Brambarov
Pimen - Nicolai Ghiaurov
Grigory - Dimiter Uzunov
Orchestra and Chorus of the National Opera
Asen Naidenov
Sofia, April 17, 1959
CD3
16. Act 1: Still one more tale. The final chapter opens .
17. Lord, our Heavenly Father, have mercy on Thy slaves .
18. Don't grieve that you renounced the world of sin 50 early
19. Act 4: A humbie hermit, who has no thoughts
20. Act 4: A humbie hermit, who has no thoughts

Лог создания рипа

CD1

Exact Audio Copy V1.0 beta 3 from 29. August 2011
EAC extraction logfile from 4. November 2014, 13:08
Mussorgsky / Boris Godunov, Khaikin CD1
Used drive : TS8XDVDSTRANSCEND Adapter: 1 ID: 1
Read mode : Secure
Utilize accurate stream : Yes
Defeat audio cache : Yes
Make use of C2 pointers : No
Read offset correction : 6
Overread into Lead-In and Lead-Out : No
Fill up missing offset samples with silence : Yes
Delete leading and trailing silent blocks : No
Null samples used in CRC calculations : Yes
Used interface : Native Win32 interface for Win NT & 2000
Used output format : Monkey's Audio Lossless Encoder
Selected bitrate : High Lossless Compression
Quality : High
Add ID3 tag : Yes
Command line compressor : C:\Program Files (x86)\Exact Audio Copy\MAC\MAC.exe
TOC of the extracted CD
Track | Start | Length | Start sector | End sector
---------------------------------------------------------
1 | 0:00.00 | 4:36.17 | 0 | 20716
2 | 4:36.17 | 5:22.36 | 20717 | 44902
3 | 9:58.53 | 9:09.38 | 44903 | 86115
4 | 19:08.16 | 2:17.48 | 86116 | 96438
5 | 21:25.64 | 1:47.04 | 96439 | 104467
6 | 23:12.68 | 3:35.28 | 104468 | 120620
7 | 26:48.21 | 2:49.47 | 120621 | 133342
8 | 29:37.68 | 3:19.42 | 133343 | 148309
9 | 32:57.35 | 5:06.41 | 148310 | 171300
10 | 38:04.01 | 4:54.05 | 171301 | 193355
11 | 42:58.06 | 4:35.36 | 193356 | 214016
12 | 47:33.42 | 1:31.62 | 214017 | 220903
13 | 49:05.29 | 4:17.25 | 220904 | 240203
14 | 53:22.54 | 4:01.57 | 240204 | 258335
15 | 57:24.36 | 4:31.46 | 258336 | 278706
16 | 61:56.07 | 4:24.31 | 278707 | 298537
Range status and errors
Selected range
Filename D:\EAC\Mussorgsky - Boris Godunov, Khaikin CD1.wav
Peak level 73.8 %
Extraction speed 3.3 X
Range quality 100.0 %
Test CRC 47AB4069
Copy CRC 47AB4069
Copy OK
No errors occurred
AccurateRip summary
Track 1 accurately ripped (confidence 1) [AE506BB8] (AR v2)
Track 2 accurately ripped (confidence 1) [30C10497] (AR v2)
Track 3 accurately ripped (confidence 1) [BECAAEA0] (AR v2)
Track 4 accurately ripped (confidence 1) [C37783CC] (AR v2)
Track 5 accurately ripped (confidence 1) [3ACBCB53] (AR v2)
Track 6 accurately ripped (confidence 1) [6C4281E8] (AR v2)
Track 7 accurately ripped (confidence 1) [82001AB8] (AR v2)
Track 8 accurately ripped (confidence 1) [051034C0] (AR v2)
Track 9 accurately ripped (confidence 1) [27A2BD3F] (AR v2)
Track 10 accurately ripped (confidence 1) [1F834513] (AR v2)
Track 11 accurately ripped (confidence 1) [B106188E] (AR v2)
Track 12 accurately ripped (confidence 1) [247A6A68] (AR v2)
Track 13 accurately ripped (confidence 1) [C06C2417] (AR v2)
Track 14 accurately ripped (confidence 1) [A7B7BE23] (AR v2)
Track 15 accurately ripped (confidence 1) [076A1FD5] (AR v2)
Track 16 accurately ripped (confidence 1) [6ADEED60] (AR v2)
All tracks accurately ripped
End of status report
---- CUETools DB Plugin V2.1.3
[CTDB TOCID: 4CESej5OhDMxJ.QHmCCaYQhbtMg-] disk not present in database, Submit result: unrecognized or virtual drive
==== Log checksum B7A89FABB2582CE4ECC843DA7B167458B3EBD24388A6E457C9B85C40869B2369 ====

CD2

Exact Audio Copy V1.0 beta 3 from 29. August 2011
EAC extraction logfile from 4. November 2014, 12:24
Mussorgsky / Boris Godunov, Khaikin CD2
Used drive : TS8XDVDSTRANSCEND Adapter: 1 ID: 1
Read mode : Secure
Utilize accurate stream : Yes
Defeat audio cache : Yes
Make use of C2 pointers : No
Read offset correction : 6
Overread into Lead-In and Lead-Out : No
Fill up missing offset samples with silence : Yes
Delete leading and trailing silent blocks : No
Null samples used in CRC calculations : Yes
Used interface : Native Win32 interface for Win NT & 2000
Used output format : Monkey's Audio Lossless Encoder
Selected bitrate : High Lossless Compression
Quality : High
Add ID3 tag : Yes
Command line compressor : C:\Program Files (x86)\Exact Audio Copy\MAC\MAC.exe
TOC of the extracted CD
Track | Start | Length | Start sector | End sector
---------------------------------------------------------
1 | 0:00.00 | 2:48.64 | 0 | 12663
2 | 2:48.64 | 2:28.40 | 12664 | 23803
3 | 5:17.29 | 1:35.38 | 23804 | 30966
4 | 6:52.67 | 3:54.50 | 30967 | 48566
5 | 10:47.42 | 5:45.42 | 48567 | 74483
6 | 16:33.09 | 0:52.60 | 74484 | 78443
7 | 17:25.69 | 7:48.45 | 78444 | 113588
8 | 25:14.39 | 4:19.70 | 113589 | 133083
9 | 29:34.34 | 2:29.12 | 133084 | 144270
10 | 32:03.46 | 2:12.57 | 144271 | 154227
11 | 34:16.28 | 3:33.43 | 154228 | 170245
12 | 37:49.71 | 4:34.67 | 170246 | 190862
13 | 42:24.63 | 4:52.17 | 190863 | 212779
14 | 47:17.05 | 2:44.35 | 212780 | 225114
15 | 50:01.40 | 1:47.44 | 225115 | 233183
16 | 51:49.09 | 3:10.58 | 233184 | 247491
17 | 54:59.67 | 1:50.73 | 247492 | 255814
18 | 56:50.65 | 3:49.42 | 255815 | 273031
19 | 60:40.32 | 2:17.68 | 273032 | 283374
20 | 62:58.25 | 7:31.04 | 283375 | 317203
21 | 70:29.29 | 4:15.08 | 317204 | 336336
Range status and errors
Selected range
Filename D:\EAC\Mussorgsky - Boris Godunov, Khaikin CD2.wav
Peak level 77.9 %
Extraction speed 3.4 X
Range quality 100.0 %
Test CRC 845BE852
Copy CRC 845BE852
Copy OK
No errors occurred
AccurateRip summary
Track 1 accurately ripped (confidence 1) [18429E5A] (AR v2)
Track 2 accurately ripped (confidence 1) [52C90EA7] (AR v2)
Track 3 accurately ripped (confidence 1) [BE632474] (AR v2)
Track 4 accurately ripped (confidence 1) [DB6D40C6] (AR v2)
Track 5 accurately ripped (confidence 1) [EEDB2746] (AR v2)
Track 6 accurately ripped (confidence 1) [5334EF0E] (AR v2)
Track 7 accurately ripped (confidence 1) [779F3E91] (AR v2)
Track 8 accurately ripped (confidence 1) [0BB7DE22] (AR v2)
Track 9 accurately ripped (confidence 1) [0C948EA1] (AR v2)
Track 10 accurately ripped (confidence 1) [B089C9C5] (AR v2)
Track 11 accurately ripped (confidence 1) [B5CC4564] (AR v2)
Track 12 accurately ripped (confidence 1) [5BF43D9D] (AR v2)
Track 13 accurately ripped (confidence 1) [A4589EE1] (AR v2)
Track 14 accurately ripped (confidence 1) [B6ACC625] (AR v2)
Track 15 accurately ripped (confidence 1) [9C0B28A2] (AR v2)
Track 16 accurately ripped (confidence 1) [A210DB86] (AR v2)
Track 17 accurately ripped (confidence 1) [F9EE0246] (AR v2)
Track 18 accurately ripped (confidence 1) [D46885AC] (AR v2)
Track 19 accurately ripped (confidence 1) [BF45E5B9] (AR v2)
Track 20 accurately ripped (confidence 1) [ABB62218] (AR v2)
Track 21 accurately ripped (confidence 1) [381B1A2D] (AR v2)
All tracks accurately ripped
End of status report
---- CUETools DB Plugin V2.1.3
[CTDB TOCID: IwRgBXuqCKz9971z4FmOJ2sAqMk-] disk not present in database, Submit result: unrecognized or virtual drive
==== Log checksum B5A1BEF6D3BB8907FE0869B23F70C6607902040F1CD38A55632062226E84084D ====

CD3

Exact Audio Copy V1.0 beta 3 from 29. August 2011
EAC extraction logfile from 4. November 2014, 12:54
Mussorgsky / Boris Godunov, Khaikin CD3
Used drive : TSSTcorpCDDVDW SE-208AB Adapter: 1 ID: 0
Read mode : Secure
Utilize accurate stream : Yes
Defeat audio cache : Yes
Make use of C2 pointers : No
Read offset correction : 6
Overread into Lead-In and Lead-Out : No
Fill up missing offset samples with silence : Yes
Delete leading and trailing silent blocks : No
Null samples used in CRC calculations : Yes
Used interface : Native Win32 interface for Win NT & 2000
Used output format : Monkey's Audio Lossless Encoder
Selected bitrate : High Lossless Compression
Quality : High
Add ID3 tag : Yes
Command line compressor : C:\Program Files (x86)\Exact Audio Copy\MAC\MAC.exe
TOC of the extracted CD
Track | Start | Length | Start sector | End sector
---------------------------------------------------------
1 | 0:00.00 | 3:35.55 | 0 | 16179
2 | 3:35.55 | 2:27.57 | 16180 | 27261
3 | 6:03.37 | 4:18.37 | 27262 | 46648
4 | 10:21.74 | 3:29.37 | 46649 | 62360
5 | 13:51.36 | 1:40.69 | 62361 | 69929
6 | 15:32.30 | 3:48.33 | 69930 | 87062
7 | 19:20.63 | 5:25.60 | 87063 | 111497
8 | 24:46.48 | 5:38.22 | 111498 | 136869
9 | 30:24.70 | 4:46.05 | 136870 | 158324
10 | 35:11.00 | 5:02.60 | 158325 | 181034
11 | 40:13.60 | 1:25.14 | 181035 | 187423
12 | 41:38.74 | 2:32.17 | 187424 | 198840
13 | 44:11.16 | 2:33.40 | 198841 | 210355
14 | 46:44.56 | 1:46.15 | 210356 | 218320
15 | 48:30.71 | 1:48.01 | 218321 | 226421
16 | 50:18.72 | 2:53.68 | 226422 | 239464
17 | 53:12.65 | 5:16.50 | 239465 | 263214
18 | 58:29.40 | 5:42.70 | 263215 | 288934
19 | 64:12.35 | 5:22.27 | 288935 | 313111
20 | 69:34.62 | 6:19.59 | 313112 | 341595
Range status and errors
Selected range
Filename D:\EAC\Mussorgsky - Boris Godunov, Khaikin CD3.wav
Peak level 87.6 %
Extraction speed 2.2 X
Range quality 100.0 %
Test CRC 8979B9A5
Copy CRC 8979B9A5
Copy OK
No errors occurred
AccurateRip summary
Track 1 accurately ripped (confidence 1) [F62DDFF0] (AR v1)
Track 2 accurately ripped (confidence 1) [E064AE46] (AR v1)
Track 3 accurately ripped (confidence 1) [B2D18E39] (AR v1)
Track 4 accurately ripped (confidence 1) [55629328] (AR v1)
Track 5 accurately ripped (confidence 1) [AAF4F5DE] (AR v1)
Track 6 accurately ripped (confidence 1) [A4CBBC6A] (AR v1)
Track 7 accurately ripped (confidence 1) [43686706] (AR v1)
Track 8 accurately ripped (confidence 1) [EE1FBCF2] (AR v2)
Track 9 accurately ripped (confidence 1) [98B16993] (AR v2)
Track 10 accurately ripped (confidence 1) [7562391D] (AR v2)
Track 11 accurately ripped (confidence 1) [9FD124F4] (AR v2)
Track 12 accurately ripped (confidence 1) [ED54EA20] (AR v2)
Track 13 accurately ripped (confidence 1) [BC3D3BA9] (AR v2)
Track 14 accurately ripped (confidence 1) [6B051BC3] (AR v2)
Track 15 accurately ripped (confidence 1) [FEBDC5BC] (AR v2)
Track 16 accurately ripped (confidence 1) [55876355] (AR v1)
Track 17 accurately ripped (confidence 1) [DD56B821] (AR v1)
Track 18 accurately ripped (confidence 1) [54B580F3] (AR v1)
Track 19 accurately ripped (confidence 1) [CBE8F2D5] (AR v1)
Track 20 accurately ripped (confidence 1) [F4902F03] (AR v1)
All tracks accurately ripped
End of status report
---- CUETools DB Plugin V2.1.3
[CTDB TOCID: 31HSPLtsn5hACB0GSmxzNDBHTek-] disk not present in database, Submit result: 31HSPLtsn5hACB0GSmxzNDBHTek- has been uploaded
==== Log checksum D5C1E3F50B9F652CCDD8125A78CC6D2FBF7DAA0163291BEA3A7C71733E0007C0 ====

Содержание индексной карты (.CUE)

CD1

REM GENRE Opera
REM DATE 1972
REM DISCID F50F8C10
REM COMMENT "ExactAudioCopy v1.0b3"
PERFORMER "Mussorgsky"
TITLE "Boris Godunov, Khaikin CD1"
FILE "Mussorgsky - Boris Godunov, Khaikin CD1.ape" WAVE
TRACK 01 AUDIO
TITLE "Prologue: Wake up there! Have you frozen into statues?"
PERFORMER "Mussorgsky"
INDEX 01 00:00:00
TRACK 02 AUDIO
TITLE "Why forsake us and leave us helpless, great boyar?"
PERFORMER "Mussorgsky"
INDEX 01 04:36:17
TRACK 03 AUDIO
TITLE "Mitiukh! Hey, Mitiukh, why should we shout?"
PERFORMER "Mussorgsky"
INDEX 01 09:58:53
TRACK 04 AUDIO
TITLE "0 ye Orthodox! The boyar spurns our wishes!"
PERFORMER "Mussorgsky"
INDEX 00 19:03:16
INDEX 01 19:08:16
TRACK 05 AUDIO
TITLE "Glory to Thee our Lord, Creator of Heaven and earth"
PERFORMER "Mussorgsky"
INDEX 01 21:25:64
TRACK 06 AUDIO
TITLE "Long life to our Tsar Boris Feodorovich!"
PERFORMER "Mussorgsky"
INDEX 01 23:12:68
TRACK 07 AUDIO
TITLE "My soul is sad! A secret terror haunts me"
PERFORMER "Mussorgsky"
INDEX 01 26:48:21
TRACK 08 AUDIO
TITLE "Act 1: Still one more tale. The final chapter opens"
PERFORMER "Mussorgsky"
INDEX 01 29:37:68
TRACK 09 AUDIO
TITLE "Lord, our Heavenly Father, have mercy on Thy slaves"
PERFORMER "Mussorgsky"
INDEX 01 32:57:35
TRACK 10 AUDIO
TITLE "Don't grieve that you renounced the world of sin 50 early"
PERFORMER "Mussorgsky"
INDEX 01 38:04:01
TRACK 11 AUDIO
TITLE "Once I caught a duck, what a stroke of luck!"
PERFORMER "Mussorgsky"
INDEX 00 42:51:06
INDEX 01 42:58:06
TRACK 12 AUDIO
TITLE "Why are you 50 miserabie, young fellow?"
PERFORMER "Mussorgsky"
INDEX 01 47:33:42
TRACK 13 AUDIO
TITLE "By the walls of Kazan the mighty fortress"
PERFORMER "Mussorgsky"
INDEX 01 49:05:29
TRACK 14 AUDIO
TITLE "He walks along, walks all dav long"
PERFORMER "Mussorgsky"
INDEX 01 53:22:54
TRACK 15 AUDIO
TITLE "God-fearing mendicants"
PERFORMER "Mussorgsky"
INDEX 01 57:24:36
TRACK 16 AUDIO
TITLE "At the cloister of Chudov"
PERFORMER "Mussorgsky"
INDEX 01 61:56:07

CD2

REM GENRE Opera
REM DATE 1972
REM DISCID 14118415
REM COMMENT "ExactAudioCopy v1.0b3"
PERFORMER "Mussorgsky"
TITLE "Boris Godunov, Khaikin CD2"
FILE "Mussorgsky - Boris Godunov, Khaikin CD2.ape" WAVE
TRACK 01 AUDIO
TITLE "Act 2: Where are you, dearest, where are you, beloved?"
PERFORMER "Mussorgsky"
INDEX 01 00:00:00
TRACK 02 AUDIO
TITLE "While the gnat was chopping wood"
PERFORMER "Mussorgsky"
INDEX 01 02:48:64
TRACK 03 AUDIO
TITLE "Here's a song to make people laugh"
PERFORMER "Mussorgsky"
INDEX 01 05:17:29
TRACK 04 AUDIO
TITLE "Mercy! What is this?"
PERFORMER "Mussorgsky"
INDEX 01 06:52:67
TRACK 05 AUDIO
TITLE "I stand supreme in power"
PERFORMER "Mussorgsky"
INDEX 01 10:47:42
TRACK 06 AUDIO
TITLE "What is it?"
PERFORMER "Mussorgsky"
INDEX 01 16:33:09
TRACK 07 AUDIO
TITLE "Most mighty Lord and tsar, my homage!"
PERFORMER "Mussorgsky"
INDEX 01 17:25:69
TRACK 08 AUDIO
TITLE "Ugh! Give me air! I suffocate in here"
PERFORMER "Mussorgsky"
INDEX 01 25:14:39
TRACK 09 AUDIO
TITLE "Act 3: By Visia's blue waters"
PERFORMER "Mussorgsky"
INDEX 00 29:29:34
INDEX 01 29:34:34
TRACK 10 AUDIO
TITLE "No more, pray!"
PERFORMER "Mussorgsky"
INDEX 01 32:03:46
TRACK 11 AUDIO
TITLE "Ah! Life is tedious! Yes, so tedious!"
PERFORMER "Mussorgsky"
INDEX 01 34:16:28
TRACK 12 AUDIO
TITLE "Ah! It is you, holy father!"
PERFORMER "Mussorgsky"
INDEX 01 37:49:71
TRACK 13 AUDIO
TITLE "Your beauty must serve to bewitch the pretender!"
PERFORMER "Mussorgsky"
INDEX 01 42:24:63
TRACK 14 AUDIO
TITLE "Midnight... the grove...by the fountain"
PERFORMER "Mussorgsky"
INDEX 00 47:10:05
INDEX 01 47:17:05
TRACK 15 AUDIO
TITLE "Tsarevich!...What, you again!"
PERFORMER "Mussorgsky"
INDEX 01 50:01:40
TRACK 16 AUDIO
TITLE "Lies? I lie? Could I lie to you, Tsarevich?"
PERFORMER "Mussorgsky"
INDEX 01 51:49:09
TRACK 17 AUDIO
TITLE "Tsarevich, I am but a priest, a servant of God"
PERFORMER "Mussorgsky"
INDEX 01 54:59:67
TRACK 18 AUDIO
TITLE "How can I believe you love me, marquis?"
PERFORMER "Mussorgsky"
INDEX 01 56:50:65
TRACK 19 AUDIO
TITLE "Oh, that crafty Jesuit!"
PERFORMER "Mussorgsky"
INDEX 01 60:40:32
TRACK 20 AUDIO
TITLE "Dimitri! Tsarevich! Dimitri!"
PERFORMER "Mussorgsky"
INDEX 01 62:58:25
TRACK 21 AUDIO
TITLE "0 Tsarevich, I implore you"
PERFORMER "Mussorgsky"
INDEX 01 70:29:29

CD3

REM GENRE Opera
REM DATE 1972
REM DISCID 0211CA14
REM COMMENT "ExactAudioCopy v1.0b3"
PERFORMER "Mussorgsky"
TITLE "Boris Godunov, Khaikin CD3"
FILE "Mussorgsky - Boris Godunov, Khaikin CD3.ape" WAVE
TRACK 01 AUDIO
TITLE "Act4: What, has the service finished?"
PERFORMER "Mussorgsky"
INDEX 01 00:00:00
TRACK 02 AUDIO
TITLE "Trrr, trrr, trrr, trrr! Your hat's made of tin"
PERFORMER "Mussorgsky"
INDEX 01 03:35:55
TRACK 03 AUDIO
TITLE "Merciful, gracious Tsar, give alms for Our Lord's sake"
PERFORMER "Mussorgsky"
INDEX 01 06:03:37
TRACK 04 AUDIO
TITLE "Come, let's put it to the vote, your lordship"
PERFORMER "Mussorgsky"
INDEX 01 10:21:74
TRACK 05 AUDIO
TITLE "I fear I've kept you somewhat"
PERFORMER "Mussorgsky"
INDEX 01 13:51:36
TRACK 06 AUDIO
TITLE "Who says the child was rnurdered?"
PERFORMER "Mussorgsky"
INDEX 01 15:32:30
TRACK 07 AUDIO
TITLE "One evening, when all was still"
PERFORMER "Mussorgsky"
INDEX 01 19:20:63
TRACK 08 AUDIO
TITLE "Farewell, my son, lam dying"
PERFORMER "Mussorgsky"
INDEX 01 24:46:48
TRACK 09 AUDIO
TITLE "Hark! 'T is the knellof death!"
PERFORMER "Mussorgsky"
INDEX 01 30:24:70
TRACK 10 AUDIO
TITLE "Let's put him here, and sit him on this log a moment"
PERFORMER "Mussorgsky"
INDEX 01 35:11:00
TRACK 11 AUDIO
TITLE "Darkness has swallowed sun and moon"
PERFORMER "Mussorgsky"
INDEX 01 40:13:60
TRACK 12 AUDIO
TITLE "Hurrah! Casting off our chains of bondage"
PERFORMER "Mussorgsky"
INDEX 01 41:38:74
TRACK 13 AUDIO
TITLE "Domine, Domine, salvum fac Regem"
PERFORMER "Mussorgsky"
INDEX 01 44:11:16
TRACK 14 AUDIO
TITLE "Hail to our Tsar most glorious, whom God has saved for us!"
PERFORMER "Mussorgsky"
INDEX 01 46:44:56
TRACK 15 AUDIO
TITLE "Tears are flowing, tears of blood flowing"
PERFORMER "Mussorgsky"
INDEX 01 48:30:71
TRACK 16 AUDIO
TITLE "Act 1: Still one more tale. The final chapter opens"
PERFORMER "Mussorgsky"
INDEX 01 50:18:72
TRACK 17 AUDIO
TITLE "Lord, our Heavenly Father, have mercy on Thy slaves"
PERFORMER "Mussorgsky"
INDEX 00 53:02:65
INDEX 01 53:12:65
TRACK 18 AUDIO
TITLE "Don't grieve that you renounced the world of sin 50 early"
PERFORMER "Mussorgsky"
INDEX 01 58:29:40
TRACK 19 AUDIO
TITLE "Act 4: A humbie hermit, who has no thoughts"
PERFORMER "Mussorgsky"
INDEX 01 64:12:35
TRACK 20 AUDIO
TITLE "Act 4: A humbie hermit, who has no thoughts"
PERFORMER "Mussorgsky"
INDEX 00 69:26:62
INDEX 01 69:34:62



Показать сообщения:    

Текущее время: 10-Дек 00:19

Часовой пояс: UTC + 3


Вы не можете начинать темы
Вы не можете отвечать на сообщения
Вы не можете редактировать свои сообщения
Вы не можете удалять свои сообщения
Вы не можете голосовать в опросах
Вы не можете прикреплять файлы к сообщениям
Вы не можете скачивать файлы