(Baroque Oratorio) Italian Oratorios * Legrenzi - Il Cuor Umano All'Incanto (Freddi, Costa - Ensemble Legrenzi) * Carissimi - Oratorio della santissima Vergine & Jonas (Nizzi, Somigli - Complesso Pro Musica Firenze) - 2003, APE (image+.cue) loss


Статистика раздачи [Обновить пиров]
Размер:  506 MB   |    Зарегистрирован:  8 месяцев 23 дня   |    Скачан:  0 раз

Полного источника не было: Никогда

 
   
 
 
 

[Цитировать]

Oratorios of the Italian Baroque, Legrenzi - Carissimi
Жанр: Baroque Oratorio
Страна-производитель диска: Italy
Год издания диска: 2003
Издатель (лейбл): Brilliant Classics
Номер по каталогу: 93354
Дата записи: 2001-2003
Аудиокодек: APE
Тип рипа: image+.cue
Битрейт аудио: lossless
Продолжительность: 63'10+54'34
Источник: собственный рип
Наличие сканов в содержимом раздачи: да
Треклист/Исполнители:
Giovanni Legrenzi (1626-1690)

Треклист:

Il Cuor umano all'incanto, oratorio for 4 voices & basso continuo
1. Part 1. Sinfonia
2. Part 1. Io, che sono un Core umano
3. Part 1. O Mondo, O Piacere
4. Part 1. E Dunque il Core umano
5. Part 1. Do nuovo rimbomba
6. Part 1. Core umano non temere
7. Part 1. Cor uman, se ti miro
8. Part 1. Dolce prezzo! O quanto, o quanto
9. Part 1. Cerca monete, o Cor, che sian più sode
10. Part 1. Senti o Cor non t'ingannare
11. Part 1. Taci Piacer, non più, tu m'incateni
12. Part 1. Che cosa è 'l piacere?
13. Part 1. Dico anch'io ch'è verità
14. Part 1. Saggia sentenza
15. Part 1. Eh, non temer, il Mondo Ascolta
16. Part 1. Innalza il guardo a la celeste mole
17. Part 1. A dirtela schietta
18. Part 1. Cauto consiglio! Io mi vo'dare a voi
19. Part 1. Madrigale. Ecco viene già servo il Core
20. Part 2. Sinfonia
21. Part 2. Soccorrete o cieli amici
22. Part 2. Sento che 'l Cor umano
23. Part 2. Un sentiero fiorito
24. Part 2. E quai cieli invocar puoi
25. Part 2. Ahi qual gelido orrore
26. Part 2. Abissi orribili
27. Part 2. Maledico I tuoi piaceri
28. Part 2. Questi queruli accenti, e 'l grido roco
29. Part 2. O Giesù mio, mio Redentor, mia vita
30. Part 2. Discacciato dal Mondo, a Dio pretendi
31. Part 2. No mio Dio, ma gira il ciglio
32. Part 2. Chuidi l'indegne invidiose labbra
33. Part 2. Dunque al Cielo alzerassi un Cor di fango
34. Part 2. Ma tu, ma tu rimira, o Core ingrate
35. Part 2. Dunque omai rimirate, unami cori
36. Part 2. Madrigale. se v'offre il Mondo
Ensemble Legrenzi
Carola Freddi, soprano
Paolo Costa, alto
Mario Cecchetti, tenor
Marco Scavazza, bassGiacomo Carissimi (1605-1674)
Oratorio della Santissima Vergine, for 5 voices, 2 violins & basso continuo

Треклист:

1. Sinfonia
2. Io dell'eterna Mente...
3. Ecco al vento le bandiere
4. Taccia Betulla
5. Su su si spogli di fiori il prato
6. Notte mai non è sì nera
Jonas, oratorio for soloists, 5 voices, 2 violins & basso continuo

Треклист:

7. Simphonia
8. Et praeliabantur venti
9. Tulerunt nautae Jonam
10. Peccavimus, Domine
Complesso Pro Musica Firenze
Sabrina Guidotti, soprano
Barbara Nizzi, soprano
Titziana Somigli, contralto
Roberto Casi, tenor
Umbero Nizzi, tenor
Francesco Sclaveran, tenor

Лог создания рипа

CD1

Exact Audio Copy V1.0 beta 3 from 29. August 2011
EAC extraction logfile from 22. November 2014, 12:26
Legrenzi / Il Cuor Umano All'incanto, Ensemble Legrenzi
Used drive : TSSTcorpCDDVDW SE-208AB Adapter: 1 ID: 0
Read mode : Secure
Utilize accurate stream : Yes
Defeat audio cache : Yes
Make use of C2 pointers : No
Read offset correction : 6
Overread into Lead-In and Lead-Out : No
Fill up missing offset samples with silence : Yes
Delete leading and trailing silent blocks : No
Null samples used in CRC calculations : Yes
Used interface : Native Win32 interface for Win NT & 2000
Used output format : Monkey's Audio Lossless Encoder
Selected bitrate : High Lossless Compression
Quality : High
Add ID3 tag : Yes
Command line compressor : C:\Program Files (x86)\Exact Audio Copy\MAC\MAC.exe
TOC of the extracted CD
Track | Start | Length | Start sector | End sector
---------------------------------------------------------
1 | 0:00.00 | 2:39.37 | 0 | 11961
2 | 2:39.37 | 4:01.64 | 11962 | 30100
3 | 6:41.26 | 0:45.19 | 30101 | 33494
4 | 7:26.45 | 1:18.57 | 33495 | 39401
5 | 8:45.27 | 1:15.07 | 39402 | 45033
6 | 10:00.34 | 0:55.29 | 45034 | 49187
7 | 10:55.63 | 1:22.49 | 49188 | 55386
8 | 12:18.37 | 0:51.69 | 55387 | 59280
9 | 13:10.31 | 2:29.07 | 59281 | 70462
10 | 15:39.38 | 2:11.32 | 70463 | 80319
11 | 17:50.70 | 0:27.13 | 80320 | 82357
12 | 18:18.08 | 2:36.27 | 82358 | 94084
13 | 20:54.35 | 1:24.01 | 94085 | 100385
14 | 22:18.36 | 0:25.53 | 100386 | 102313
15 | 22:44.14 | 1:34.67 | 102314 | 109430
16 | 24:19.06 | 1:29.48 | 109431 | 116153
17 | 25:48.54 | 1:35.59 | 116154 | 123337
18 | 27:24.38 | 1:29.12 | 123338 | 130024
19 | 28:53.50 | 3:38.43 | 130025 | 146417
20 | 32:32.18 | 1:39.35 | 146418 | 153877
21 | 34:11.53 | 2:57.48 | 153878 | 167200
22 | 37:09.26 | 0:56.63 | 167201 | 171463
23 | 38:06.14 | 3:43.09 | 171464 | 188197
24 | 41:49.23 | 1:35.58 | 188198 | 195380
25 | 43:25.06 | 1:01.23 | 195381 | 199978
26 | 44:26.29 | 0:54.10 | 199979 | 204038
27 | 45:20.39 | 1:49.07 | 204039 | 212220
28 | 47:09.46 | 1:57.34 | 212221 | 221029
29 | 49:07.05 | 0:53.74 | 221030 | 225078
30 | 50:01.04 | 0:46.47 | 225079 | 228575
31 | 50:47.51 | 1:07.46 | 228576 | 233646
32 | 51:55.22 | 0:25.09 | 233647 | 235530
33 | 52:20.31 | 1:11.47 | 235531 | 240902
34 | 53:32.03 | 6:07.66 | 240903 | 268493
35 | 59:39.69 | 0:46.54 | 268494 | 271997
36 | 60:26.48 | 1:55.36 | 271998 | 280658
Range status and errors
Selected range
Filename D:\EAC\Legrenzi - Il Cuor Umano All'incanto, Ensemble Legrenzi.wav
Peak level 100.0 %
Extraction speed 4.6 X
Range quality 100.0 %
Test CRC AA0DBC9E
Copy CRC AA0DBC9E
Copy OK
No errors occurred
AccurateRip summary
Track 1 not present in database
Track 2 not present in database
Track 3 not present in database
Track 4 not present in database
Track 5 not present in database
Track 6 not present in database
Track 7 not present in database
Track 8 not present in database
Track 9 not present in database
Track 10 not present in database
Track 11 not present in database
Track 12 not present in database
Track 13 not present in database
Track 14 not present in database
Track 15 not present in database
Track 16 not present in database
Track 17 not present in database
Track 18 not present in database
Track 19 not present in database
Track 20 not present in database
Track 21 not present in database
Track 22 not present in database
Track 23 not present in database
Track 24 not present in database
Track 25 not present in database
Track 26 not present in database
Track 27 not present in database
Track 28 not present in database
Track 29 not present in database
Track 30 not present in database
Track 31 not present in database
Track 32 not present in database
Track 33 not present in database
Track 34 not present in database
Track 35 not present in database
Track 36 not present in database
None of the tracks are present in the AccurateRip database
End of status report
---- CUETools DB Plugin V2.1.3
[CTDB TOCID: PZIXEpjSO_NmHXG2_554rv.kVuU-] disk not present in database, Submit result: PZIXEpjSO_NmHXG2_554rv.kVuU- has been uploaded
==== Log checksum 5D7660A66AA95ADF0A0E883E3BE64ADEA7E529A6B33D062B2C2A7AD26EA3015B ====

CD2

Exact Audio Copy V1.0 beta 3 from 29. August 2011
EAC extraction logfile from 22. November 2014, 13:37
Carissimi / Oratorio della SS Vergine & Jonas, Complesso Pro Musica Firenze
Used drive : TSSTcorpCDDVDW SE-208AB Adapter: 1 ID: 0
Read mode : Secure
Utilize accurate stream : Yes
Defeat audio cache : Yes
Make use of C2 pointers : No
Read offset correction : 6
Overread into Lead-In and Lead-Out : No
Fill up missing offset samples with silence : Yes
Delete leading and trailing silent blocks : No
Null samples used in CRC calculations : Yes
Used interface : Native Win32 interface for Win NT & 2000
Used output format : Monkey's Audio Lossless Encoder
Selected bitrate : High Lossless Compression
Quality : High
Add ID3 tag : Yes
Command line compressor : C:\Program Files (x86)\Exact Audio Copy\MAC\MAC.exe
TOC of the extracted CD
Track | Start | Length | Start sector | End sector
---------------------------------------------------------
1 | 0:00.00 | 5:10.15 | 0 | 23264
2 | 5:10.15 | 7:49.22 | 23265 | 58461
3 | 12:59.37 | 1:51.35 | 58462 | 66821
4 | 14:50.72 | 3:18.39 | 66822 | 81710
5 | 18:09.36 | 5:52.69 | 81711 | 108179
6 | 24:02.30 | 1:54.59 | 108180 | 116788
7 | 25:57.14 | 5:24.57 | 116789 | 141145
8 | 31:21.71 | 10:14.08 | 141146 | 187203
9 | 41:36.04 | 9:24.46 | 187204 | 229549
10 | 51:00.50 | 3:34.18 | 229550 | 245617
Range status and errors
Selected range
Filename D:\EAC\Carissimi - Oratorio della SS Vergine & Jonas, Complesso Pro Musica Firenze.wav
Peak level 98.7 %
Extraction speed 1.8 X
Range quality 100.0 %
Test CRC 724F6B9A
Copy CRC 724F6B9A
Copy OK
No errors occurred
AccurateRip summary
Track 1 accurately ripped (confidence 1) [AC909830] (AR v1)
Track 2 accurately ripped (confidence 1) [93E9FD8D] (AR v1)
Track 3 accurately ripped (confidence 1) [A358D17E] (AR v1)
Track 4 accurately ripped (confidence 1) [7B35E4DE] (AR v1)
Track 5 accurately ripped (confidence 1) [90EF736D] (AR v1)
Track 6 accurately ripped (confidence 1) [37042ED3] (AR v1)
Track 7 accurately ripped (confidence 2) [0D969082] (AR v1)
Track 8 accurately ripped (confidence 2) [614B2155] (AR v1)
Track 9 accurately ripped (confidence 2) [A46C932D] (AR v1)
Track 10 accurately ripped (confidence 2) [26C90540] (AR v1)
All tracks accurately ripped
End of status report
---- CUETools DB Plugin V2.1.3
[CTDB TOCID: S7Kj6VMAdw0PKXp5VLPjuKaRm98-] disk not present in database, Submit result: S7Kj6VMAdw0PKXp5VLPjuKaRm98- has been uploaded
==== Log checksum F37982798795D672C0AD74AB44728B137299769106CB9144A2D58482C4CCB19A ====

Содержание индексной карты (.CUE)

CD1

REM GENRE "Baroque Oratorio"
REM DATE 2001
REM DISCID D30E9E24
REM COMMENT "ExactAudioCopy v1.0b3"
PERFORMER "Legrenzi"
TITLE "Il Cuor Umano All'incanto, Ensemble Legrenzi"
FILE "Legrenzi - Il Cuor Umano All'incanto, Ensemble Legrenzi.ape" WAVE
TRACK 01 AUDIO
TITLE "Sinfonia"
PERFORMER "Legrenzi"
FLAGS DCP
INDEX 01 00:00:00
TRACK 02 AUDIO
TITLE "Io, Che Sono Un Core Umano"
PERFORMER "Legrenzi"
FLAGS DCP
INDEX 01 02:39:37
TRACK 03 AUDIO
TITLE "O Mondo, O Piacere"
PERFORMER "Legrenzi"
FLAGS DCP
INDEX 01 06:41:26
TRACK 04 AUDIO
TITLE "E Dunque Il Core Umano"
PERFORMER "Legrenzi"
FLAGS DCP
INDEX 01 07:26:45
TRACK 05 AUDIO
TITLE "Di Nuovo Rimbomba"
PERFORMER "Legrenzi"
FLAGS DCP
INDEX 01 08:45:27
TRACK 06 AUDIO
TITLE "Core Umano Non Temere"
PERFORMER "Legrenzi"
FLAGS DCP
INDEX 01 10:00:34
TRACK 07 AUDIO
TITLE "Cor Uman, Se Ti Miro"
PERFORMER "Legrenzi"
FLAGS DCP
INDEX 01 10:55:63
TRACK 08 AUDIO
TITLE "Dolce Prezzo! O Quanto, O Quanto"
PERFORMER "Legrenzi"
FLAGS DCP
INDEX 01 12:18:37
TRACK 09 AUDIO
TITLE "Cerca Monete, O Cor, Cha Sian Più Sode"
PERFORMER "Legrenzi"
FLAGS DCP
INDEX 01 13:10:31
TRACK 10 AUDIO
TITLE "Senti O Cor Non T'ingannare"
PERFORMER "Legrenzi"
FLAGS DCP
INDEX 01 15:39:38
TRACK 11 AUDIO
TITLE "Taci Piacer, Non Più, Tu M'incateni"
PERFORMER "Legrenzi"
FLAGS DCP
INDEX 01 17:50:70
TRACK 12 AUDIO
TITLE "Che Cosa È L'piacere?"
PERFORMER "Legrenzi"
FLAGS DCP
INDEX 01 18:18:08
TRACK 13 AUDIO
TITLE "Dico Anch'io Ch'è Verità"
PERFORMER "Legrenzi"
FLAGS DCP
INDEX 01 20:54:35
TRACK 14 AUDIO
TITLE "Saggia Senteza"
PERFORMER "Legrenzi"
FLAGS DCP
INDEX 01 22:18:36
TRACK 15 AUDIO
TITLE "Eh, Non Temer, Il Mondo Ascolta"
PERFORMER "Legrenzi"
FLAGS DCP
INDEX 01 22:44:14
TRACK 16 AUDIO
TITLE "Innalza Il Guardo A La Celeste Mole"
PERFORMER "Legrenzi"
FLAGS DCP
INDEX 01 24:19:06
TRACK 17 AUDIO
TITLE "A Dirtela Schietta"
PERFORMER "Legrenzi"
FLAGS DCP
INDEX 01 25:48:54
TRACK 18 AUDIO
TITLE "Cauto Consiglio! Io Mi Vo'dare A Voi"
PERFORMER "Legrenzi"
FLAGS DCP
INDEX 01 27:24:38
TRACK 19 AUDIO
TITLE "Madrigale 'Ecco Viene Già Servo Il Core'"
PERFORMER "Legrenzi"
FLAGS DCP
INDEX 01 28:53:50
TRACK 20 AUDIO
TITLE "Sinfonia"
PERFORMER "Legrenzi"
FLAGS DCP
INDEX 01 32:32:18
TRACK 21 AUDIO
TITLE "Soccorrete O Cieli Amici"
PERFORMER "Legrenzi"
FLAGS DCP
INDEX 01 34:11:53
TRACK 22 AUDIO
TITLE "Sento Che 'l Cor Umano"
PERFORMER "Legrenzi"
FLAGS DCP
INDEX 01 37:09:26
TRACK 23 AUDIO
TITLE "Un Sentiero Fiorito"
PERFORMER "Legrenzi"
FLAGS DCP
INDEX 01 38:06:14
TRACK 24 AUDIO
TITLE "E Quai Cieli Invocar Puoi"
PERFORMER "Legrenzi"
FLAGS DCP
INDEX 01 41:49:23
TRACK 25 AUDIO
TITLE "Ahi Qual Gelido Orrore"
PERFORMER "Legrenzi"
FLAGS DCP
INDEX 01 43:25:06
TRACK 26 AUDIO
TITLE "Abissi Orribili"
PERFORMER "Legrenzi"
FLAGS DCP
INDEX 01 44:26:29
TRACK 27 AUDIO
TITLE "Maledico I Tuoi Iaceri"
PERFORMER "Legrenzi"
FLAGS DCP
INDEX 01 45:20:39
TRACK 28 AUDIO
TITLE "Questi Queruli Accenti, E 'l Grido Roco"
PERFORMER "Legrenzi"
FLAGS DCP
INDEX 01 47:09:46
TRACK 29 AUDIO
TITLE "O Giesù Mio, Mio Redentor, Mia Vita"
PERFORMER "Legrenzi"
FLAGS DCP
INDEX 01 49:07:05
TRACK 30 AUDIO
TITLE "Discacciato Dal Mondo, A Dio Pretendi"
PERFORMER "Legrenzi"
FLAGS DCP
INDEX 01 50:01:04
TRACK 31 AUDIO
TITLE "No Mio Dio, Ma Gira Il Ciglio"
PERFORMER "Legrenzi"
FLAGS DCP
INDEX 01 50:47:51
TRACK 32 AUDIO
TITLE "Chuidi L'indegne Invidiose Labbra"
PERFORMER "Legrenzi"
FLAGS DCP
INDEX 01 51:55:22
TRACK 33 AUDIO
TITLE "Dunque Al Cielo Alzerassi Un Cor Di Fango"
PERFORMER "Legrenzi"
FLAGS DCP
INDEX 01 52:20:31
TRACK 34 AUDIO
TITLE "Ma Tu, Ma Tu Rimira, O Core Ingrato"
PERFORMER "Legrenzi"
FLAGS DCP
INDEX 01 53:32:03
TRACK 35 AUDIO
TITLE "Dunque Omai Rimirate, Umani Cori"
PERFORMER "Legrenzi"
FLAGS DCP
INDEX 01 59:39:69
TRACK 36 AUDIO
TITLE "Madrigale 'Se V'offre Il Mondo'"
PERFORMER "Legrenzi"
FLAGS DCP
INDEX 01 60:26:48

CD2

REM GENRE "Baroque Oratorio"
REM DATE 2003
REM DISCID 8D0CCA0A
REM COMMENT "ExactAudioCopy v1.0b3"
PERFORMER "Carissimi"
TITLE "Oratorio della SS Vergine & Jonas, Complesso Pro Musica Firenze"
FILE "Carissimi - Oratorio della SS Vergine & Jonas, Complesso Pro Musica Firenze.ape" WAVE
TRACK 01 AUDIO
TITLE "Oratorio della SS Vergine - Sinfonia"
PERFORMER "Carissimi"
INDEX 01 00:00:00
TRACK 02 AUDIO
TITLE "Oratorio della SS Vergine - Io dell'eterna Mente"
PERFORMER "Carissimi"
INDEX 01 05:10:15
TRACK 03 AUDIO
TITLE "Oratorio della SS Vergine - Ecco al vento le bandiere"
PERFORMER "Carissimi"
INDEX 01 12:59:37
TRACK 04 AUDIO
TITLE "Oratorio della SS Vergine - Taccia Betulla"
PERFORMER "Carissimi"
INDEX 01 14:50:72
TRACK 05 AUDIO
TITLE "Oratorio della SS Vergine - Su su si spogli di fiori il prato"
PERFORMER "Carissimi"
INDEX 01 18:09:36
TRACK 06 AUDIO
TITLE "Oratorio della SS Vergine - Notte mai non e si nera"
PERFORMER "Carissimi"
INDEX 01 24:02:30
TRACK 07 AUDIO
TITLE "Jonas - Simphonia"
PERFORMER "Carissimi"
INDEX 00 25:54:14
INDEX 01 25:57:14
TRACK 08 AUDIO
TITLE "Jonas - Et praeliabantur venti"
PERFORMER "Carissimi"
INDEX 01 31:21:71
TRACK 09 AUDIO
TITLE "Jonas - Tulerunt nautae Jonam"
PERFORMER "Carissimi"
INDEX 01 41:36:04
TRACK 10 AUDIO
TITLE "Jonas - Peccavimus, Domine"
PERFORMER "Carissimi"
INDEX 01 51:00:50
[teatrix.ru].t19522.torrent 
Торрент: Зарегистрирован [ 2016-03-18 12:35 ] · A3AB4C9E1E419E59AC428CEB9717C0B8FE47857C

Скачать .torrent

Скачать

21 KB

Статус: проверено
Скачан: 0 раз
Размер: 506 MB
terms.php



Быстрый ответ

Имя:

      
Для отправки сообщений необходимо включить JavaScript
Показать сообщения:    

Текущее время: 11-Дек 05:22

Часовой пояс: UTC + 3


Вы можете начинать темы
Вы можете отвечать на сообщения
Вы не можете редактировать свои сообщения
Вы не можете удалять свои сообщения
Вы не можете голосовать в опросах
Вы не можете прикреплять файлы к сообщениям
Вы можете скачивать файлы