Бойцы - одиночки / Einzelkämpfer (Сандра Кауделка / Sandra Kaudelka) [2013, Док. фильм, SATRip]


Статистика раздачи [Обновить пиров]
Размер:  646 MB   |    Зарегистрирован:  8 месяцев 20 дней   |    Скачан:  0 раз

Полного источника не было: Никогда

 
   
 
 
 

[Цитировать]

Бойцы - одиночки / Einzelkämpfer
Дата/Год выпуска: 2013
Страна: Германия
Жанр: Док. фильм
Продолжительность: 01:27:44
Перевод: Субтитры
Русские субтитры: есть
Формат субтитров: hardsub (неотключаемые)
Оригинальная аудиодорожка: немецкий
Режиссер: Сандра Кауделка / Sandra Kaudelka
Описание: Дипломная работа бывшей чемпионки ГДР по прыжкам в воду, а ныне кинорежиссера Сандры Кауделки.
Германской Демократической Республики более 20 лет нет на политической карте мира. Однако до сих пор живы её спортивные легенды. Сама бывшая спортсменка, чемпионка ГДР по прыжкам в воду, а ныне режиссер Сандра Кауделка выбрала для своего фильма 4-х героев. Это один из самых успешных толкателей ядра в истории спорта, олимпийский чемпион Удо Байер; двукратная чемпионка мира по прыжкам в воду Брита Балдус; одна из лучших бегуний страны на короткие дистанции Инес Гайпель; рекордсменка в беге на 400 метров, победительница Московской Олимпиады Марита Кох. Из воспоминаний героев об их спортивной юности и рассказов о настоящем складывается представление о стране, которую они когда-то олицетворяли…
SATRip от : Твид
Доп. информация: Любезно предоставлено клубом Fenix
Сэмпл: http://multi-up.com/1014888
качество: SATRip
формат: AVI
Видео: XviD, 894 kb/s, 640x528, 25 fps, 0.106 bits/pixel
Аудио: 0x0055(MP3) ID'd as MPEG-1 Layer 3, 128 kb/s (2/ch, stereo) CBR, 48000 Hz - Немецкий

MediaInfo

Общее
Полное имя : D:\FILMS\Bojtsy - odinochki.SAT-rip.by.Твид.fenixclub.avi.avi
Формат : AVI
Формат/Информация : Audio Video Interleave
Размер файла : 646 Мбайт
Продолжительность : 1 ч. 27 м.
Общий поток : 1029 Кбит/сек
Видео
Идентификатор : 0
Формат : MPEG-4 Visual
Профиль формата : Advanced Simple@L5
Параметр BVOP формата : 2
Параметр QPel формата : Нет
Параметр GMC формата : Без точки перехода
Параметр матрицы формата : Default (H.263)
Идентификатор кодека : XVID
Идентификатор кодека/Подсказка : XviD
Продолжительность : 1 ч. 27 м.
Битрейт : 891 Кбит/сек
Ширина : 640 пикселей
Высота : 528 пикселей
Соотношение сторон : 1,212
Частота кадров : 25,000 кадров/сек
Цветовое пространство : YUV
Субдискретизация насыщенности : 4:2:0
Битовая глубина : 8 бит
Тип развёртки : Прогрессивная
Метод сжатия : С потерями
Бит/(Пиксели*Кадры) : 0.105
Размер потока : 559 Мбайт (87%)
Библиотека кодирования : XviD 1.1.2 (UTC 2006-11-01)
Аудио
Идентификатор : 1
Формат : MPEG Audio
Версия формата : Version 1
Профиль формата : Layer 3
Режим : Joint stereo
Расширение режима : MS Stereo
Идентификатор кодека : 55
Идентификатор кодека/Подсказка : MP3
Продолжительность : 1 ч. 27 м.
Вид битрейта : Постоянный
Битрейт : 128 Кбит/сек
Каналы : 2 канала
Частота : 48,0 КГц
Метод сжатия : С потерями
Задержка видео : 16 мс.
Размер потока : 80,3 Мбайт (12%)
Выравнивание : Разделение по промежуткам
Продолжительность промежутка : 40 мс. (1,00 видеокадр)
Время предзагрузки промежутка : 500 мс.

Скриншоты

[teatrix.ru].t19523.torrent 
Торрент: Зарегистрирован [ 2016-03-18 12:44 ] · 696A8EBB7247550828F03A0A07F57C52516EAE22

Скачать .torrent

Скачать

13 KB

Статус: проверено
Скачан: 0 раз
Размер: 646 MB
terms.php



Быстрый ответ

Имя:

      
Для отправки сообщений необходимо включить JavaScript
Показать сообщения:    

Текущее время: 07-Дек 19:29

Часовой пояс: UTC + 3


Вы можете начинать темы
Вы можете отвечать на сообщения
Вы не можете редактировать свои сообщения
Вы не можете удалять свои сообщения
Вы не можете голосовать в опросах
Вы не можете прикреплять файлы к сообщениям
Вы можете скачивать файлы