(Classical) Le Passage de la Mer Rouge: Cantates Spirituelles de E. Jacquet de la Guerre, R.D. de Bousset, S. de Brossard - Luanda Siqueira, Le Tendre Amour - 2009, FLAC (image+.cue) lossless


 

[Цитировать]

Cantates Spirituelles de E. Jacquet de la Guerre, R.D. de Bousset, S. de Brossard - Luanda Siqueira, Le Tendre Amour
Жанр: Classical
Страна-производитель диска: France
Год издания диска: 2009
Издатель (лейбл): K617
Номер по каталогу: K617218
Дата записи: 2009
Аудиокодек: FLAC
Тип рипа: image+.cue
Битрейт аудио: lossless
Продолжительность: 51:58
Источник: собственный рип
Наличие сканов в содержимом раздачи: да
Треклист:
Élisabeth Jacquet de la Guerre (1665-1729)
[1]-[9] Le Passage de la Mer Rouge (1er livre, 1708)
2ème cantate des Cantates françoises sur des sujets tirez de l’Ecriture
[10]-[16] Sonate en trio III (1695)
Sébastien de Brossard (1655-1730)
[17]-[18] Sonate en trio en sol mineur SdB. 222
[19]-[24] La Cheutte de Salomon SdB. 71
3ème des 6 cantates françaises sur des sujets tirés de l’Ecriture Sainte
[25] Ritournelle SdB. 226
René Drouard de Bousset (1703-1760)
[26]-[31] Judith (1er livre, 1735)
3ème des Cantates Spirituelles
Исполнители:
Luanda Siqueira soprano
Le Tendre Amour

Лог создания рипа

Exact Audio Copy V1.0 beta 3 from 29. August 2011
EAC extraction logfile from 6. June 2014, 2:41
Le Tendre Amour / Le passage de la mer rouge
Used drive : HL-DT-STDVDRAM GSA-4083N Adapter: 1 ID: 0
Read mode : Secure
Utilize accurate stream : Yes
Defeat audio cache : Yes
Make use of C2 pointers : No
Read offset correction : 667
Overread into Lead-In and Lead-Out : No
Fill up missing offset samples with silence : Yes
Delete leading and trailing silent blocks : No
Null samples used in CRC calculations : Yes
Used interface : Native Win32 interface for Win NT & 2000
Used output format : User Defined Encoder
Selected bitrate : 896 kBit/s
Quality : High
Add ID3 tag : No
Command line compressor : C:\Program Files\Exact Audio Copy\Flac\flac.exe
Additional command line options : -V -8 %source%
TOC of the extracted CD
Track | Start | Length | Start sector | End sector
---------------------------------------------------------
1 | 0:00.00 | 0:45.71 | 0 | 3445
2 | 0:45.71 | 1:01.44 | 3446 | 8064
3 | 1:47.40 | 3:28.32 | 8065 | 23696
4 | 5:15.72 | 0:35.12 | 23697 | 26333
5 | 5:51.09 | 1:10.69 | 26334 | 31652
6 | 7:02.03 | 2:04.33 | 31653 | 40985
7 | 9:06.36 | 0:27.39 | 40986 | 43049
8 | 9:34.00 | 0:30.71 | 43050 | 45370
9 | 10:04.71 | 2:53.25 | 45371 | 58370
10 | 12:58.21 | 2:01.29 | 58371 | 67474
11 | 14:59.50 | 1:29.28 | 67475 | 74177
12 | 16:29.03 | 0:56.16 | 74178 | 78393
13 | 17:25.19 | 0:38.18 | 78394 | 81261
14 | 18:03.37 | 1:00.17 | 81262 | 85778
15 | 19:03.54 | 2:02.05 | 85779 | 94933
16 | 21:05.59 | 0:50.34 | 94934 | 98717
17 | 21:56.18 | 1:32.03 | 98718 | 105620
18 | 23:28.21 | 1:09.67 | 105621 | 110862
19 | 24:38.13 | 1:17.53 | 110863 | 116690
20 | 25:55.66 | 1:36.71 | 116691 | 123961
21 | 27:32.62 | 0:46.30 | 123962 | 127441
22 | 28:19.17 | 2:33.05 | 127442 | 138921
23 | 30:52.22 | 1:27.26 | 138922 | 145472
24 | 32:19.48 | 3:09.23 | 145473 | 159670
25 | 35:28.71 | 0:37.14 | 159671 | 162459
26 | 36:06.10 | 1:07.18 | 162460 | 167502
27 | 37:13.28 | 5:23.40 | 167503 | 191767
28 | 42:36.68 | 0:55.63 | 191768 | 195955
29 | 43:32.56 | 2:29.07 | 195956 | 207137
30 | 46:01.63 | 1:16.21 | 207138 | 212858
31 | 47:18.09 | 4:38.13 | 212859 | 233721
Range status and errors
Selected range
Filename J:\New Music\K617218 - Le passage de la mer rouge\Le passage de la mer rouge.wav
Peak level 94.5 %
Extraction speed 3.3 X
Range quality 100.0 %
Test CRC 3CEE2C19
Copy CRC 3CEE2C19
Copy OK
No errors occurred
AccurateRip summary
Track 1 accurately ripped (confidence 1) [221BD810] (AR v2)
Track 2 accurately ripped (confidence 1) [B9FE80EA] (AR v2)
Track 3 accurately ripped (confidence 1) [8175538D] (AR v2)
Track 4 accurately ripped (confidence 1) [A3A9D7AE] (AR v2)
Track 5 accurately ripped (confidence 1) [81FE350F] (AR v2)
Track 6 accurately ripped (confidence 1) [82B4B26E] (AR v2)
Track 7 accurately ripped (confidence 1) [66647651] (AR v2)
Track 8 accurately ripped (confidence 1) [E27885A2] (AR v2)
Track 9 accurately ripped (confidence 1) [2D85B330] (AR v2)
Track 10 accurately ripped (confidence 1) [C80FDFF8] (AR v2)
Track 11 accurately ripped (confidence 1) [75D59301] (AR v2)
Track 12 accurately ripped (confidence 1) [1C16D838] (AR v2)
Track 13 accurately ripped (confidence 1) [6C93790D] (AR v2)
Track 14 accurately ripped (confidence 1) [B3851E1D] (AR v2)
Track 15 accurately ripped (confidence 1) [6DA1C373] (AR v2)
Track 16 accurately ripped (confidence 1) [E5BEB999] (AR v2)
Track 17 accurately ripped (confidence 1) [151EF4C4] (AR v2)
Track 18 accurately ripped (confidence 1) [710AF37A] (AR v2)
Track 19 accurately ripped (confidence 1) [A48A69B8] (AR v2)
Track 20 accurately ripped (confidence 1) [5B8AB98E] (AR v2)
Track 21 accurately ripped (confidence 1) [E597D210] (AR v2)
Track 22 accurately ripped (confidence 1) [3B39B309] (AR v2)
Track 23 accurately ripped (confidence 1) [5CE4F662] (AR v2)
Track 24 accurately ripped (confidence 1) [05043B64] (AR v2)
Track 25 accurately ripped (confidence 1) [F99055E1] (AR v2)
Track 26 accurately ripped (confidence 1) [41308A14] (AR v2)
Track 27 accurately ripped (confidence 1) [DCA847FF] (AR v2)
Track 28 accurately ripped (confidence 1) [C32C6BE9] (AR v2)
Track 29 accurately ripped (confidence 1) [D9CE9F3B] (AR v2)
Track 30 accurately ripped (confidence 1) [3075DC95] (AR v2)
Track 31 accurately ripped (confidence 1) [5D776511] (AR v2)
All tracks accurately ripped
End of status report
==== Log checksum 7104C4559350B26C21860368F24FC7790B3CC79DA59251C49DCD807A7FEEE447 ====



Показать сообщения:    

Текущее время: 08-Дек 17:21

Часовой пояс: UTC + 3


Вы не можете начинать темы
Вы не можете отвечать на сообщения
Вы не можете редактировать свои сообщения
Вы не можете удалять свои сообщения
Вы не можете голосовать в опросах
Вы не можете прикреплять файлы к сообщениям
Вы не можете скачивать файлы