Scott Sonnon Steven Barnes - Threshold Training [2007, фитнес, офп, DVDRip, ENG] (Видеоурок)


Статистика раздачи [Обновить пиров]
Размер:  1.48 GB   |    Зарегистрирован:  8 месяцев 16 дней   |    Скачан:  0 раз

Полного источника не было: Никогда

 
   
 
 
 

[Цитировать]

[Scott Sonnon] Steven Barnes - Threshold Training
Страна: США
Тематика: фитнес, офп
Тип раздаваемого материала: Видеоурок
Продолжительность: 03:47:54
Год выпуска: 2007
Язык: Английский
Перевод: Отсутствует
Описание: Двухдисковый семинар по ОФП от Скотта Соннона и Стивена Барнса
Two of the world's most accomplished men in their respective fields have teamed up to offer their combined insights on the Path of Life Mastery. Scott Sonnon - International Martial Arts Sensation, known around the world as the "Flow Coach". Steven Barnes - NY Times Best Selling Author, Screen Writer and Creator of LifeWriting. This DVD set presents the highlights from one of their joint seminars. See Steve and Scott live coaching! It would be impossible for one person to accomplish what these two men have done.
They have mastered the three aspects of life mastery: a vibrant physical practice, a rich transpersonal community presence, and intrinsically rewarding service careers helping hundreds of thousands worldwide through their collective works. And they have created a method for you to tap into the connection between your physical, family and professional abundance. Through decades of searching, study and practice in a wide variety of incredibly successful peak performance technologies Steve and Scott have independently identified and collaboratively refined a process which requires only ONE HOUR A WEEK, but over the months and years becomes a rolling snowball of inertia to carry you beyond your personal and professional dreams.
Through thousands of successful clients in completely different fields, Steve and Scott discovered that tapping into your unlimited potential is anchored in your physical practice and reticulates outward into your family life and professional career. Change your life in 24 hours: one hour a week. In one day, you'll feel the difference. In six weeks, you'll SEE the difference. In just 24 weeks, everyone around you will want to know what you've been doing. Have "Flow" in your personal life, your career, your physical performance.
Качество: DVDRip
Формат: MP4
Видео кодек: H.264
Аудио кодек: AAC
Видео: AVC at 794 Kbps 480 x 368 (1.304) at 29.970 fps
Аудио: AAC at 128 Kbps 2 channels, 48.0 KHz

MediaInfo

General
Complete name : Scott Sonnon Steven Barnes - Threshold Training - 2007\Scott Sonnon Steven Barnes - Threshold Training - Disc 1.mp4
Format : MPEG-4
Codec ID : M4V
File size : 770 MiB
Duration : 1h 56mn
Overall bit rate : 927 Kbps
Movie name : RMAX Threshold Training 1
Album : THRESHOLD_TRAINING_1
Album/Performer : RMAX
Performer : RMAX
Recorded date : 2009
Writing application : Lavf52.33.0
Video
ID : 1
Format : AVC
Format/Info : Advanced Video Codec
Format profile : Baseline@L3.0
Format settings, CABAC : No
Format settings, ReFrames : 1 frame
Codec ID : avc1
Codec ID/Info : Advanced Video Coding
Duration : 1h 56mn
Bit rate mode : Variable
Bit rate : 794 Kbps
Width : 480 pixels
Height : 368 pixels
Display aspect ratio : 4:3
Frame rate mode : Constant
Frame rate : 29.970 fps
Color space : YUV
Chroma subsampling : 4:2:0
Bit depth : 8 bits
Scan type : Progressive
Bits/(Pixel*Frame) : 0.150
Stream size : 659 MiB (86%)
Audio
ID : 2
Format : AAC
Format/Info : Advanced Audio Codec
Format profile : LC
Codec ID : 40
Duration : 1h 56mn
Bit rate mode : Variable
Bit rate : 128 Kbps
Channel(s) : 2 channels
Channel positions : Front: L R
Sampling rate : 48.0 KHz
Compression mode : Lossy
Stream size : 106 MiB (14%)
[teatrix.ru].t19527.torrent 
Торрент: Зарегистрирован [ 2016-03-18 12:35 ] · ECB5CA413CEA5AFF18AF7268D7412A5440799545

Скачать .torrent

Скачать

16 KB

Статус: проверено
Скачан: 0 раз
Размер: 1.48 GB
terms.php



Быстрый ответ

Имя:

      
Для отправки сообщений необходимо включить JavaScript
Показать сообщения:    

Текущее время: 03-Дек 14:38

Часовой пояс: UTC + 3


Вы можете начинать темы
Вы можете отвечать на сообщения
Вы не можете редактировать свои сообщения
Вы не можете удалять свои сообщения
Вы не можете голосовать в опросах
Вы не можете прикреплять файлы к сообщениям
Вы можете скачивать файлы