Рихард Вагнер - Золото Рейна / Wagner - Das Rheingold (John Tomlinson, Graham Clark, Linda Finnie, Gunter von Kannen, Birgitta Svenden) Даниэль Баренбойм / Daniel Barenboim (Harry Kupfer) [1991, Opera, DVD9]


 

[Цитировать]

Wagner - Das RheingoldРихард ВАГНЕР - ЗОЛОТО РЕЙНА
_________________________________________________________________
Год записи/выхода: 1991/2006
Лейбл: Warner Classics
Страна-производитель: Germany
Жанр: Opera
Продолжительность: 154 min.
Язык: Немецкий
Субтитры: German, Français, English, Italiano, Espanol
Режиссер: Harry Kupfer
Исполнители:
Wotan - John Tomlinson
Donner - Bodo Brinkmann
Froh - Kurt Schreibmayer
Loge - Graham Clark
Alberich - Günter von Kannen
Mime - Helmut Pampuch
Fasolt - Matthias Hölle
Fafner - Philip Kang
Fricka - Linda Finnie
Freia - Eva Johansson
Erda - Birgitta Svendén
Woglinde - Hilde Leidland
Wellgunde - Annette Küttenbaum
Flosshilde - Jane Turner
Orchester der Bayreuther Festspiele
Conductor - Daniel Barenboim
Bayreuther Festspiele, 1991
Доп. информация: booklet included
Качество видео: DVD9
Формат/Контейнер: DVDVideo
Видео кодек: MPEG2
Аудио кодек: PCM, DTS, AC3
Видео поток: NTSC (1.78:1) VBR, 29.970 fps
Аудио поток: 1536 kbps 2.0 / 755 kbps 5.1 / 448 kbps 5.1

Скриншоты

MediaInfo

General
Complete name                            : Wagner - Der Ring Des Nibelungen - 1 Das Rheingold (Barenboim-Bayreuther)\VIDEO_TS\VTS_01_1.VOB
Format                                   : MPEG-PS
File size                                : 1 024 MiB
Duration                                 : 20mn 46s
Overall bit rate mode                    : Variable
Overall bit rate                         : 6 889 Kbps
[br]
Video
ID                                       : 224 (0xE0)
Format                                   : MPEG Video
Format version                           : Version 2
Format profile                           : Main@Main
Format settings, BVOP                    : Yes
Format settings, Matrix                  : Custom
Format settings, GOP                     : M=3, N=15
Duration                                 : 20mn 46s
Bit rate mode                            : Variable
Bit rate                                 : 4 013 Kbps
Maximum bit rate                         : 6 860 Kbps
Width                                    : 720 pixels
Height                                   : 480 pixels
Display aspect ratio                     : 16:9
Frame rate                               : 29.970 fps
Standard                                 : NTSC
Color space                              : YUV
Chroma subsampling                       : 4:2:0
Bit depth                                : 8 bits
Scan type                                : Interlaced
Scan order                               : Top Field First
Compression mode                         : Lossy
Bits/(Pixel*Frame)                       : 0.387
Time code of first frame                 : 10:00:30:00
Time code source                         : Group of pictures header
Stream size                              : 597 MiB (58%)
[br]
Audio #1
ID                                       : 189 (0xBD)-129 (0x81)
Format                                   : AC-3
Format/Info                              : Audio Coding 3
Mode extension                           : CM (complete main)
Format settings, Endianness              : Big
Muxing mode                              : DVD-Video
Duration                                 : 20mn 46s
Bit rate mode                            : Constant
Bit rate                                 : 448 Kbps
Channel(s)                               : 6 channels
Channel positions                        : Front: L C R, Side: L R, LFE
Sampling rate                            : 48.0 KHz
Bit depth                                : 16 bits
Compression mode                         : Lossy
Stream size                              : 66.6 MiB (7%)
[br]
Audio #2
ID                                       : 189 (0xBD)-138 (0x8A)
Format                                   : DTS
Format/Info                              : Digital Theater Systems
Mode                                     : 16
Format settings, Endianness              : Big
Muxing mode                              : DVD-Video
Duration                                 : 20mn 46s
Bit rate mode                            : Constant
Bit rate                                 : 755 Kbps
Channel(s)                               : 6 channels
Channel positions                        : Front: L C R, Side: L R, LFE
Sampling rate                            : 48.0 KHz
Bit depth                                : 24 bits
Compression mode                         : Lossy
Stream size                              : 112 MiB (11%)
[br]
Audio #3
ID                                       : 189 (0xBD)-160 (0xA0)
Format                                   : PCM
Format settings, Endianness              : Big
Format settings, Sign                    : Signed
Muxing mode                              : DVD-Video
Duration                                 : 20mn 46s
Bit rate mode                            : Constant
Bit rate                                 : 1 536 Kbps
Channel(s)                               : 2 channels
Sampling rate                            : 48.0 KHz
Bit depth                                : 16 bits
Stream size                              : 228 MiB (22%)
[br]
Text #1
ID                                       : 189 (0xBD)-32 (0x20)
Format                                   : RLE
Format/Info                              : Run-length encoding
Muxing mode                              : DVD-Video
[br]
Text #2
ID                                       : 189 (0xBD)-33 (0x21)
Format                                   : RLE
Format/Info                              : Run-length encoding
Muxing mode                              : DVD-Video
[br]
Text #3
ID                                       : 189 (0xBD)-34 (0x22)
Format                                   : RLE
Format/Info                              : Run-length encoding
Muxing mode                              : DVD-Video
[br]
Text #4
ID                                       : 189 (0xBD)-35 (0x23)
Format                                   : RLE
Format/Info                              : Run-length encoding
Muxing mode                              : DVD-Video
[br]
Text #5
ID                                       : 189 (0xBD)-36 (0x24)
Format                                   : RLE
Format/Info                              : Run-length encoding
Muxing mode                              : DVD-Video
[br]
Text #6
ID                                       : 189 (0xBD)-37 (0x25)
Format                                   : RLE
Format/Info                              : Run-length encoding
Muxing mode                              : DVD-Video
[br]
Text #7
ID                                       : 189 (0xBD)-38 (0x26)
Format                                   : RLE
Format/Info                              : Run-length encoding
Muxing mode                              : DVD-Video
[br]
Text #8
ID                                       : 189 (0xBD)-39 (0x27)
Format                                   : RLE
Format/Info                              : Run-length encoding
Muxing mode                              : DVD-Video
[br]
Text #9
ID                                       : 189 (0xBD)-40 (0x28)
Format                                   : RLE
Format/Info                              : Run-length encoding
Muxing mode                              : DVD-Video
[br]
Text #10
ID                                       : 189 (0xBD)-41 (0x29)
Format                                   : RLE
Format/Info                              : Run-length encoding
Muxing mode                              : DVD-Video
[br]
Menu

Disc2: Die Walkure
Disc3: Siegfried
Disc4: Gotterdammerung



Показать сообщения:    

Текущее время: 09-Дек 08:54

Часовой пояс: UTC + 3


Вы не можете начинать темы
Вы не можете отвечать на сообщения
Вы не можете редактировать свои сообщения
Вы не можете удалять свои сообщения
Вы не можете голосовать в опросах
Вы не можете прикреплять файлы к сообщениям
Вы не можете скачивать файлы