Paul Chek - Scientific Back Training [1998, фитнес, DVDRip, ENG] (Видеоурок)

DL-List and Torrent activity [Update пиров]
Size:  3.93 GB   |    Registered:  7 months 9 days   |    Completed:  0 times

Seeder not seen: Never



Paul Chek - Scientific Back Training
Страна: США
Тематика: фитнес
Тип раздаваемого материала: Видеоурок
Продолжительность: 06:59:40
Год выпуска: 1998
Язык: Английский
Перевод: Отсутствует
Описание: Курс о тренировке спины от Paul Chek

53 года


Vol 1:
This Course begins with a very specific and comprehensive anatomy review that is vital to understanding correct training and rehabilitation for the back. You will learn all about:
* The significance of Intra-abdominal pressure
* Why abdominal muscles are a vital part of the back musculature
* The hydraulic amplifier mechanism
* Erectors versus the abdominal muscles as rotators and stabilizers
* Why the spino-scapular muscles are back muscles
* Optimal/dysfunctional shoulder girdle position and thoracic curvature
* Gleno-humeral & spino-scapular force couples
In summary: This video has a massive amount of information on functional anatomy, movement mechanics and the involvement of the abdominal muscles in training and rehabilitating the back
Vol Two:
You will learn about:
* The upper cross syndrome (continued from the previous tape)
* Force-couple relationships>
* Preventing faulty movement patterns and how they are developed
* Bent over rows this is a practical analysis and demonstration for you to follow and understand the practical part of this series
* The hip extensor mechanism
* Lumbar lifting posture
* Understanding lumbo-pelvic rhythm
* Assessing lumbo-pelvic rhythm practical
* The issues associated with lifting postures and how there is a huge misunderstanding in this area. If you teach any form of lifting this is a very important topic.
Vol 3:
You will learn:
* Range of Motion assessment procedures
* How the functional relationship between tonic and phasic muscles is involved in muscular imbalance and injury/ dysfunction.
* Posture curves and exercise selection. Paul Chek covers this in detail, debunking some of the myths along the way.
* Upper and lower cross syndromes
* Sway back posture
* Determining pelvic tilt and lumbar lordosis
* Wall standing lordosis test
* Scoliosis
* Importance of correct neuromuscular motor programming
* Facts about motor learning
Vol 4:
You will see the following demonstrated:
* Prone cobra plus variations
* Alternating superman
* Kneeling trunk extension
* Kneeling trunk flexion
* Hannas three-part part side flexion
* Horse stance exercises plus its many variations
* Progressions of these exercises are also covered, as this is an important issue.
* Squatology. You will also learn the dynamics of squatting so as to get the most from your client and to ensure their safety. This is a very comprehensive topic that is an absolute must if you have your clients performing squats. How exercise movements and techniques are often different to functional movements BUT that both are needed to be understood, learned and mastered for differing circumstances to ensure safety and efficiency of movement.
Vol 5:
The following exercises are discussed and demonstrated:
* Leg press
* Back extension in a great amount that will surprise you.
* Postural strength and conditioning tests are also included here as well as turning it into exercises on the back extension bench and on the mediBall.
* A wheel barrow exercise using the mediBall, its fun and hard.
* The low pull/seated row exercise
* The Total Gym
* Cables rows with many variations
* Bent over rows
* Deadlifts
* The pull over
* A Latissimus Dorsi length test and stretch
* Lat pull downs and a lot of the problems associated with them
* Reverse wood chop pattern (standing, kneeling, seated)
* Stick training plus many more
The Scientific Back Training Correspondence Course is a must if you are involved in training or rehabilitation. With this Course you have access to some of the best information available, presented in such a manner that makes the learning process both productive and enjoyable.
Качество: DVDRip
Формат: AVI
Видео кодек: XviD
Аудио кодек: MP3
Видео: MPEG-4 Visual at 1 199 Kbps 720 x 480 (1.500) at 29.970 fps
Аудио: MPEG Audio at 128 Kbps 2 channels, 48.0 KHz



Complete name : Paul Chek - Scientific Back Training\Paul Chek - Scientific Back Training - Disc 4.avi
Format : AVI
Format/Info : Audio Video Interleave
File size : 838 MiB
Duration : 1h 27mn
Overall bit rate : 1 342 Kbps
ID : 0
Format : MPEG-4 Visual
Format profile : Simple@L3
Format settings, BVOP : No
Format settings, QPel : No
Format settings, GMC : No warppoints
Format settings, Matrix : Default (H.263)
Codec ID : XVID
Codec ID/Hint : XviD
Duration : 1h 27mn
Bit rate : 1 200 Kbps
Width : 720 pixels
Height : 480 pixels
Display aspect ratio : 3:2
Frame rate : 29.970 fps
Standard : NTSC
Color space : YUV
Chroma subsampling : 4:2:0
Bit depth : 8 bits
Scan type : Progressive
Compression mode : Lossy
Bits/(Pixel*Frame) : 0.116
Stream size : 749 MiB (89%)
Writing library : XviD 1.1.0 Beta2 (UTC 2005-04-04)
ID : 1
Format : MPEG Audio
Format version : Version 1
Format profile : Layer 3
Mode : Joint stereo
Mode extension : MS Stereo
Codec ID : 55
Codec ID/Hint : MP3
Duration : 1h 27mn
Bit rate mode : Constant
Bit rate : 128 Kbps
Channel(s) : 2 channels
Sampling rate : 48.0 KHz
Compression mode : Lossy
Stream size : 79.9 MiB (10%)
Alignment : Aligned on interleaves
Interleave, duration : 24 ms (0.72 video frame)
Torrent: Registered [ 2016-03-18 12:43 ] · 059A844CADE3D2091AB1CEE23CC15AE2FE7F4F11

Download .torrent


21 KB

Status: checked
Completed: 0 times
Size: 3.93 GB

Quick Reply


Heads necessary to send messages to enable JavaScript
Display posts:    

Current time is: 28-Oct 01:43

All times are UTC + 3

You can post new topics in this forum
You can reply to topics in this forum
You cannot edit your posts in this forum
You cannot delete your posts in this forum
You cannot vote in polls in this forum
You cannot attach files in this forum
You can download files in this forum