Последний импресарио / Last Impresario, The (Грейси Отто / Gracie Otto) [2013, Док. фильм, SATRip]


Статистика раздачи [Обновить пиров]
Размер:  613 MB   |    Зарегистрирован:  8 месяцев 17 дней   |    Скачан:  0 раз

Полного источника не было: Никогда

 
   
 
 
 

[Цитировать]

Последний импресарио / Last Impresario, The
Дата/Год выпуска: 2013
Страна: Великобритания, при участии США, Австралии и Франции
Жанр: Док. фильм
Продолжительность: 01:28:26
Перевод: Субтитры
Русские субтитры: есть
Формат субтитров: hardsub (неотключаемые)
Оригинальная аудиодорожка: английский
Режиссер: Грейси Отто / Gracie Otto
Описание: Документальный фильм о знаменитом продюсере Майкле Уайте. С участием Наоми Уоттс, Джона Клиза, Греты Скакки, Йоко Оно, Кейт Мосс, Джулиана Сэндса и др.
SATRip от : Твид
Доп. информация: Любезно предоставлено клубом Fenix
Сэмпл: http://multi-up.com/1015290
качество: SATRip
формат: AVI
Видео: XviD, 835 kb/s, 640x528, 25 fps, 0.099 bits/pixel
Аудио: 0x0055(MP3) ID'd as MPEG-1 Layer 3, 128 kb/s (2/ch, stereo) CBR, 48000 Hz - Английский

MediaInfo

Общее
Полное имя : D:\FILMS\Poslednij impresario.SAT-rip.by.Твид.fenixclub.avi.avi
Формат : AVI
Формат/Информация : Audio Video Interleave
Размер файла : 613 Мбайт
Продолжительность : 1 ч. 28 м.
Общий поток : 970 Кбит/сек
Видео
Идентификатор : 0
Формат : MPEG-4 Visual
Профиль формата : Advanced Simple@L5
Параметр BVOP формата : 2
Параметр QPel формата : Нет
Параметр GMC формата : Без точки перехода
Параметр матрицы формата : Default (H.263)
Идентификатор кодека : XVID
Идентификатор кодека/Подсказка : XviD
Продолжительность : 1 ч. 28 м.
Битрейт : 832 Кбит/сек
Ширина : 640 пикселей
Высота : 528 пикселей
Соотношение сторон : 1,212
Частота кадров : 25,000 кадров/сек
Цветовое пространство : YUV
Субдискретизация насыщенности : 4:2:0
Битовая глубина : 8 бит
Тип развёртки : Прогрессивная
Метод сжатия : С потерями
Бит/(Пиксели*Кадры) : 0.098
Размер потока : 526 Мбайт (86%)
Библиотека кодирования : XviD 1.1.2 (UTC 2006-11-01)
Аудио
Идентификатор : 1
Формат : MPEG Audio
Версия формата : Version 1
Профиль формата : Layer 3
Режим : Joint stereo
Расширение режима : MS Stereo
Идентификатор кодека : 55
Идентификатор кодека/Подсказка : MP3
Продолжительность : 1 ч. 28 м.
Вид битрейта : Постоянный
Битрейт : 128 Кбит/сек
Каналы : 2 канала
Частота : 48,0 КГц
Метод сжатия : С потерями
Размер потока : 81,0 Мбайт (13%)
Выравнивание : Разделение по промежуткам
Продолжительность промежутка : 40 мс. (1,00 видеокадр)
Время предзагрузки промежутка : 500 мс.

Скриншоты

Грейси Отто

[teatrix.ru].t19533.torrent 
Торрент: Зарегистрирован [ 2016-03-18 12:43 ] · C98DF248222DE8F229D60A0357D1EC01DDB96FB5

Скачать .torrent

Скачать

13 KB

Статус: проверено
Скачан: 0 раз
Размер: 613 MB
terms.php



Быстрый ответ

Имя:

      
Для отправки сообщений необходимо включить JavaScript
Показать сообщения:    

Текущее время: 04-Дек 13:17

Часовой пояс: UTC + 3


Вы можете начинать темы
Вы можете отвечать на сообщения
Вы не можете редактировать свои сообщения
Вы не можете удалять свои сообщения
Вы не можете голосовать в опросах
Вы не можете прикреплять файлы к сообщениям
Вы можете скачивать файлы