(Classical) Онсло – Струнные квартеты III: № 4, 20 и 25 / Onslow – String Quartets, Vol. 3: Opp. 8/1, 46/2 & 50 (Mandelring Quartett: Sebastian, Nanette & Bernhard Schmidt with Roland Glassl) - 2002, FLAC (image+.cue) lossless


 

[Цитировать]

Онсло – Струнные квартеты III: № 4, 20 и 25 / Onslow – String Quartets, Vol. 3: Opp. 8/1, 46/2 & 50 (Mandelring Quartett: Sebastian, Nanette & Bernhard Schmidt with Roland Glassl)
Жанр: Classical
Страна-производитель диска: Германия
Год издания диска: 2002
Издатель (лейбл): cpo
Номер по каталогу: 999 793-2
Дата записи: 12 — 15 декабря 2000 г., Карлсруэ.
Аудиокодек: FLAC
Тип рипа: image+.cue
Битрейт аудио: lossless
Продолжительность: 01:13:01
Источник: odeonmusic
Наличие сканов в содержимом раздачи: да
Треклист:
Андре Жорж Луи Онсло (1784 — 1853).
Три струнных квартета, op. 8 (1815): № 1 (4) c-moll.
01. I. Largo. — Allegro agitato [07:35].
02. II. Adagio [05:52].
03. III. Minuetto. Allegretto. — [Trio.] — Minuetto da capo [02:46].
04. IV. Finale. Presto [03:32].
Струнный квартет № 25 B-dur, op. 50 (1833/1834).
05. I. Allegro moderato [09:14].
06. II. Scherzo. Vivace assai [04:13].
07. III. Andante grazioso [07:05].
08. IV. Finale. Allegro vivace [05:06].
Три струнных квартета, op. 46 (1832/1833): № 2 (20) F-dur.
09. I. Allegro [08:04].
10. II. Andante. Sostenuto e semplice. — Poco più lento. — [Tempo I] [08:26].
11. III. Menuetto. Vivace. — Poco più lento. — Tempo I [03:56].
12. IV. Allegro vivace e scherzo [05:48].
Исполнители:
Mandelring Quartett:
Sebastian Schmidt (скрипка),
Nanette Schmidt (скрипка),
Roland Glassl (альт),
Bernhard Schmidt (виолончель).

Лог создания рипа

Exact Audio Copy V1.0 beta 3 from 29. August 2011
EAC extraction logfile from 19. January 2013, 11:38
Mandelring Quartett / Onslow - String Quartets - Mandelring Quartett (Vol.3)
Used drive : TSSTcorpCDDVDW SH-222BB Adapter: 2 ID: 1
Read mode : Secure
Utilize accurate stream : Yes
Defeat audio cache : Yes
Make use of C2 pointers : No
Read offset correction : 6
Overread into Lead-In and Lead-Out : No
Fill up missing offset samples with silence : Yes
Delete leading and trailing silent blocks : No
Null samples used in CRC calculations : Yes
Used interface : Native Win32 interface for Win NT & 2000
Used output format : User Defined Encoder
Selected bitrate : 1024 kBit/s
Quality : High
Add ID3 tag : No
Command line compressor : C:\Program Files\Exact Audio Copy\Flac\flac.exe
Additional command line options : -8 -V -T "TITLE=%title%" -T "ARTIST=%artist%" -T "ALBUMARTIST=%albumartist%" -T "ALBUM=%albumtitle%" -T "DATE=%year%" -T "TRACKNUMBER=%tracknr%" -T "TRACKTOTAL=%numtracks%" -T "GENRE=%genre%" -T "COMMENT=%comment%" -T "PERFORMER=%albuminterpret%" -T "COMPOSER=%composer%" %source% -o %dest%
TOC of the extracted CD
Track | Start | Length | Start sector | End sector
---------------------------------------------------------
1 | 0:00.00 | 7:39.15 | 0 | 34439
2 | 7:39.15 | 5:56.70 | 34440 | 61209
3 | 13:36.10 | 2:46.25 | 61210 | 73684
4 | 16:22.35 | 3:40.20 | 73685 | 90204
5 | 20:02.55 | 9:18.15 | 90205 | 132069
6 | 29:20.70 | 4:18.47 | 132070 | 151466
7 | 33:39.42 | 7:08.40 | 151467 | 183606
8 | 40:48.07 | 5:12.58 | 183607 | 207064
9 | 46:00.65 | 8:09.22 | 207065 | 243761
10 | 54:10.12 | 8:29.30 | 243762 | 281966
11 | 62:39.42 | 3:58.50 | 281967 | 299866
12 | 66:38.17 | 5:47.68 | 299867 | 325959
Range status and errors
Selected range
Filename G:\Ripped general\[9243] Onslow - String Quartets – Mandelring Quartett (Vol.3)\Onslow - String Quartets - Mandelring Quartett (Vol.3).wav
Peak level 99.0 %
Extraction speed 8.0 X
Range quality 100.0 %
Test CRC 84D73F7E
Copy CRC 84D73F7E
Copy OK
No errors occurred
AccurateRip summary
Track 1 accurately ripped (confidence 3) [E7A61632] (AR v1)
Track 2 accurately ripped (confidence 3) [011E9C28] (AR v1)
Track 3 accurately ripped (confidence 3) [2D3D82F2] (AR v1)
Track 4 accurately ripped (confidence 3) [97BB4E93] (AR v1)
Track 5 accurately ripped (confidence 3) [61FD568C] (AR v1)
Track 6 accurately ripped (confidence 3) [53AFEDD4] (AR v1)
Track 7 accurately ripped (confidence 3) [4AFD46E4] (AR v1)
Track 8 accurately ripped (confidence 3) [030F7FD6] (AR v1)
Track 9 accurately ripped (confidence 3) [94B8E8F5] (AR v1)
Track 10 accurately ripped (confidence 3) [052FF420] (AR v1)
Track 11 accurately ripped (confidence 3) [00CF353E] (AR v1)
Track 12 accurately ripped (confidence 3) [866C10CF] (AR v1)
All tracks accurately ripped
End of status report

Содержание индексной карты (.CUE)

REM GENRE "Chamber Music"
REM DATE 2002
REM DISCID 8C10FA0C
REM COMMENT "ExactAudioCopy v1.0b3"
PERFORMER "Mandelring Quartett"
TITLE "Onslow – String quartets – Mandelring Quartett (Vol. 3)"
FILE "Onslow – String quartets – Mandelring Quartett (Vol. 3).flac" WAVE
TRACK 01 AUDIO
TITLE "String Quartet No. 4 in C minor, Op. 8 No. 1 - I. Largo - Allegro agitato"
PERFORMER "Mandelring Quartett"
INDEX 01 00:00:00
TRACK 02 AUDIO
TITLE "String Quartet No. 4 in C minor, Op. 8 No. 1 - II. Adagio"
PERFORMER "Mandelring Quartett"
INDEX 01 07:39:15
TRACK 03 AUDIO
TITLE "String Quartet No. 4 in C minor, Op. 8 No. 1 - III. Minuetto. Allegretto"
PERFORMER "Mandelring Quartett"
INDEX 01 13:36:10
TRACK 04 AUDIO
TITLE "String Quartet No. 4 in C minor, Op. 8 No. 1 - IV. Finale. Presto"
PERFORMER "Mandelring Quartett"
INDEX 01 16:22:35
TRACK 05 AUDIO
TITLE "String Quartet No. 25 in B flat major, Op. 50 - I. Allegro moderato"
PERFORMER "Mandelring Quartett"
INDEX 00 19:54:72
INDEX 01 20:02:55
TRACK 06 AUDIO
TITLE "String Quartet No. 25 in B flat major, Op. 50 - II. Scherzo. Vivace assai"
PERFORMER "Mandelring Quartett"
INDEX 01 29:20:70
TRACK 07 AUDIO
TITLE "String Quartet No. 25 in B flat major, Op. 50 - III. Andante grazioso"
PERFORMER "Mandelring Quartett"
INDEX 01 33:39:42
TRACK 08 AUDIO
TITLE "String Quartet No. 25 in B flat major, Op. 50 - IV. Finale. Allegro vivace"
PERFORMER "Mandelring Quartett"
INDEX 01 40:48:07
TRACK 09 AUDIO
TITLE "String Quartet No. 20 in F major, Op. 46 No. 2 - I. Allegro"
PERFORMER "Mandelring Quartett"
INDEX 00 45:54:02
INDEX 01 46:00:65
TRACK 10 AUDIO
TITLE "String Quartet No. 20 in F major, Op. 46 No. 2 - II. Andante. Sostenuto semplice"
PERFORMER "Mandelring Quartett"
INDEX 01 54:10:12
TRACK 11 AUDIO
TITLE "String Quartet No. 20 in F major, Op. 46 No. 2 - III. Menuetto. Vivace"
PERFORMER "Mandelring Quartett"
INDEX 01 62:39:42
TRACK 12 AUDIO
TITLE "String Quartet No. 20 in F major, Op. 46 No. 2 - IV. Allegro vivace e scherzo"
PERFORMER "Mandelring Quartett"
INDEX 01 66:38:17

Вариант индексной карты (.CUE) с выставленными зазорами

REM GENRE "Chamber Music"
REM DATE 2002
REM DISCID 8C10FA0C
REM COMMENT "ExactAudioCopy v1.0b3"
PERFORMER "Mandelring Quartett"
TITLE "Onslow – String quartets – Mandelring Quartett (Vol. 3)"
FILE "Onslow – String quartets – Mandelring Quartett (Vol. 3).flac" WAVE
TRACK 01 AUDIO
TITLE "String Quartet No. 4 in C minor, Op. 8 No. 1 - I. Largo - Allegro agitato"
PERFORMER "Mandelring Quartett"
INDEX 00 00:00:00
INDEX 01 00:00:30
TRACK 02 AUDIO
TITLE "String Quartet No. 4 in C minor, Op. 8 No. 1 - II. Adagio"
PERFORMER "Mandelring Quartett"
INDEX 00 07:36:56
INDEX 01 07:39:15
TRACK 03 AUDIO
TITLE "String Quartet No. 4 in C minor, Op. 8 No. 1 - III. Minuetto. Allegretto"
PERFORMER "Mandelring Quartett"
INDEX 00 13:33:62
INDEX 01 13:36:10
TRACK 04 AUDIO
TITLE "String Quartet No. 4 in C minor, Op. 8 No. 1 - IV. Finale. Presto"
PERFORMER "Mandelring Quartett"
INDEX 01 16:22:35
TRACK 05 AUDIO
TITLE "String Quartet No. 25 in B flat major, Op. 50 - I. Allegro moderato"
PERFORMER "Mandelring Quartett"
INDEX 00 19:54:72
INDEX 01 20:02:55
TRACK 06 AUDIO
TITLE "String Quartet No. 25 in B flat major, Op. 50 - II. Scherzo. Vivace assai"
PERFORMER "Mandelring Quartett"
INDEX 00 29:19:25
INDEX 01 29:20:70
TRACK 07 AUDIO
TITLE "String Quartet No. 25 in B flat major, Op. 50 - III. Andante grazioso"
PERFORMER "Mandelring Quartett"
INDEX 00 33:38:23
INDEX 01 33:39:42
TRACK 08 AUDIO
TITLE "String Quartet No. 25 in B flat major, Op. 50 - IV. Finale. Allegro vivace"
PERFORMER "Mandelring Quartett"
INDEX 01 40:48:07
TRACK 09 AUDIO
TITLE "String Quartet No. 20 in F major, Op. 46 No. 2 - I. Allegro"
PERFORMER "Mandelring Quartett"
INDEX 00 45:54:02
INDEX 01 46:00:65
TRACK 10 AUDIO
TITLE "String Quartet No. 20 in F major, Op. 46 No. 2 - II. Andante. Sostenuto semplice"
PERFORMER "Mandelring Quartett"
INDEX 00 54:08:38
INDEX 01 54:10:12
TRACK 11 AUDIO
TITLE "String Quartet No. 20 in F major, Op. 46 No. 2 - III. Menuetto. Vivace"
PERFORMER "Mandelring Quartett"
INDEX 00 62:37:54
INDEX 01 62:39:42
TRACK 12 AUDIO
TITLE "String Quartet No. 20 in F major, Op. 46 No. 2 - IV. Allegro vivace e scherzo"
PERFORMER "Mandelring Quartett"
INDEX 01 66:38:17



Показать сообщения:    

Текущее время: 10-Дек 08:04

Часовой пояс: UTC + 3


Вы не можете начинать темы
Вы не можете отвечать на сообщения
Вы не можете редактировать свои сообщения
Вы не можете удалять свои сообщения
Вы не можете голосовать в опросах
Вы не можете прикреплять файлы к сообщениям
Вы не можете скачивать файлы