(Baroque Opera) De Nebra - Arias De Zarzuela * Boccherini - Sinfonia Op. 12 (Maria Bayo - Al Ayre Espanol, Banzo) - 2006, APE (image+.cue) lossless


 

[Цитировать]

José De Nebra - Arias De Zarzuela * Luigi Boccherini - Sinfonia Op. 12 nr. 4 'La Casa del Diavolo'
Жанр: Baroque Opera
Страна-производитель диска: Spain
Год издания диска: 2006
Издатель (лейбл): Harmonia Mundi
Номер по каталогу: HMI 987069
Дата записи: 2005
Аудиокодек: APE
Тип рипа: image+.cue
Битрейт аудио: lossless
Продолжительность: 63'00
Источник: собственный рип
Наличие сканов в содержимом раздачи: да
Треклист:
José De Nebra
1. Recitado: Hados crueles
2. Aria: El bajel que no recela
3. Obertura (Allegro)
4. Minue I y 2
5. Seguidillas En amor pastorcillos
6. Recitado: Este, riscos incultos
7. Aria: Gozaba el pecho mio
8. Aria de graciosa: De un ojo era falta
Luigi Boccherini - Sinfonia Op. 12 nr. 4 'La Casa del Diavolo'
9. Andante Sostenuto
10. Allegro Assai
11. Andantino Con Moto
12. Andante Sostenuto
13. Allegro assai con moto
José De Nebra
14. Recitado: Ciegue, clame y sus[ire
15. Aria: Quien fio de un mar sereno?
16. Aria: Quien cielos?
17. Seguidillas Los halagos se mezclan
18. Aria: Como el zefiro
19. Aria: Vacilante pensamiento
Исполнители:
Maria Bayo (soprano)
Al Ayre Espanol
Eduardo López Banzo (conductor)
DVD Maria Bayo - Eduardo López Banzo about de recording. http://teatrix.ru/viewtopic.php?t=4885454

Лог создания рипа

Exact Audio Copy V1.0 beta 3 from 29. August 2011
EAC extraction logfile from 24. November 2014, 11:34
Nebra / Arias de zarzuelas, Banzo [Maria Bayo]
Used drive : TSSTcorpCDDVDW SE-208AB Adapter: 1 ID: 0
Read mode : Secure
Utilize accurate stream : Yes
Defeat audio cache : Yes
Make use of C2 pointers : No
Read offset correction : 6
Overread into Lead-In and Lead-Out : No
Fill up missing offset samples with silence : Yes
Delete leading and trailing silent blocks : No
Null samples used in CRC calculations : Yes
Used interface : Native Win32 interface for Win NT & 2000
Used output format : Monkey's Audio Lossless Encoder
Selected bitrate : High Lossless Compression
Quality : High
Add ID3 tag : Yes
Command line compressor : C:\Program Files (x86)\Exact Audio Copy\MAC\MAC.exe
TOC of the extracted CD
Track | Start | Length | Start sector | End sector
---------------------------------------------------------
1 | 0:00.00 | 1:26.25 | 0 | 6474
2 | 1:26.25 | 5:12.63 | 6475 | 29937
3 | 6:39.13 | 3:38.72 | 29938 | 46359
4 | 10:18.10 | 2:04.63 | 46360 | 55722
5 | 12:22.73 | 1:19.03 | 55723 | 61650
6 | 13:42.01 | 0:51.06 | 61651 | 65481
7 | 14:33.07 | 6:51.08 | 65482 | 96314
8 | 21:24.15 | 6:35.66 | 96315 | 126005
9 | 28:00.06 | 1:36.67 | 126006 | 133272
10 | 29:36.73 | 4:17.41 | 133273 | 152588
11 | 33:54.39 | 6:02.03 | 152589 | 179741
12 | 39:56.42 | 1:39.16 | 179742 | 187182
13 | 41:35.58 | 5:16.32 | 187183 | 210914
14 | 46:52.15 | 1:19.07 | 210915 | 216846
15 | 48:11.22 | 6:35.26 | 216847 | 246497
16 | 54:46.48 | 5:20.63 | 246498 | 270560
17 | 60:07.36 | 1:40.03 | 270561 | 278063
18 | 61:47.39 | 5:12.34 | 278064 | 301497
19 | 66:59.73 | 6:37.38 | 301498 | 331310
Range status and errors
Selected range
Filename D:\EAC\Nebra - Arias de zarzuelas, Banzo [Maria Bayo].wav
Peak level 97.2 %
Extraction speed 5.0 X
Range quality 100.0 %
Test CRC FBC1E7F5
Copy CRC FBC1E7F5
Copy OK
No errors occurred
AccurateRip summary
Track 1 accurately ripped (confidence 4) [21ADA60B] (AR v2)
Track 2 accurately ripped (confidence 4) [E3B38D7F] (AR v2)
Track 3 accurately ripped (confidence 4) [ADD1F935] (AR v2)
Track 4 accurately ripped (confidence 4) [C95DB1EA] (AR v2)
Track 5 accurately ripped (confidence 4) [6DDCD6CF] (AR v2)
Track 6 accurately ripped (confidence 4) [840913E2] (AR v2)
Track 7 accurately ripped (confidence 4) [49DE0447] (AR v2)
Track 8 accurately ripped (confidence 4) [FEDF78AF] (AR v2)
Track 9 accurately ripped (confidence 4) [5447DB8B] (AR v2)
Track 10 accurately ripped (confidence 4) [DE624195] (AR v2)
Track 11 accurately ripped (confidence 3) [F595F8EE] (AR v2)
Track 12 accurately ripped (confidence 4) [B7F35C01] (AR v2)
Track 13 accurately ripped (confidence 4) [976877D0] (AR v2)
Track 14 accurately ripped (confidence 3) [D4D98A77] (AR v2)
Track 15 accurately ripped (confidence 4) [F7D032EC] (AR v2)
Track 16 accurately ripped (confidence 4) [7387FEA9] (AR v2)
Track 17 accurately ripped (confidence 4) [2D25765E] (AR v2)
Track 18 accurately ripped (confidence 4) [F1DD7403] (AR v2)
Track 19 accurately ripped (confidence 4) [0F75D1B5] (AR v2)
All tracks accurately ripped
End of status report
---- CUETools DB Plugin V2.1.3
[CTDB TOCID: mdINlpBVK3JhOHExMzkYMfP3X1g-] found, Submit result: mdINlpBVK3JhOHExMzkYMfP3X1g- has been confirmed
[6cf755fb] (1/6) No match
[4b95b8ff] (5/6) Accurately ripped
==== Log checksum CA2A3902FBE865646EDDA90376934D505C1074FA5121802DFCBD05E35A5F83DF ====

Содержание индексной карты (.CUE)

REM GENRE Opera
REM DATE 2006
REM DISCID 27114113
REM COMMENT "ExactAudioCopy v1.0b3"
CATALOG 8427592000874
PERFORMER "Nebra"
TITLE "Arias de zarzuelas, Banzo [Maria Bayo]"
FILE "Nebra - Arias de zarzuelas, Banzo [Maria Bayo].ape" WAVE
TRACK 01 AUDIO
TITLE "Hados crueles"
PERFORMER "Nebra"
ISRC ES5190669010
INDEX 01 00:00:00
TRACK 02 AUDIO
TITLE "El bajel que no recela"
PERFORMER "Nebra"
ISRC ES5190669020
INDEX 01 01:26:25
TRACK 03 AUDIO
TITLE "Obertura (allegro)"
PERFORMER "Nebra"
ISRC ES5190669030
INDEX 01 06:39:13
TRACK 04 AUDIO
TITLE "Minué I y II"
PERFORMER "Nebra"
ISRC ES5190669040
INDEX 01 10:18:10
TRACK 05 AUDIO
TITLE "En amor pastorcillos"
PERFORMER "Nebra"
ISRC ES5190669050
INDEX 01 12:22:73
TRACK 06 AUDIO
TITLE "Este, riscos incultos"
PERFORMER "Nebra"
ISRC ES5190669060
INDEX 01 13:42:01
TRACK 07 AUDIO
TITLE "Gozaba el pecho mío"
PERFORMER "Nebra"
ISRC ES5190669070
INDEX 01 14:33:07
TRACK 08 AUDIO
TITLE "De un ojo era falta"
PERFORMER "Nebra"
ISRC ES5190669080
INDEX 01 21:24:15
TRACK 09 AUDIO
TITLE "La casa del Diabolo - Andante sostenuto"
PERFORMER "Nebra"
ISRC ES5190669090
INDEX 01 28:00:06
TRACK 10 AUDIO
TITLE "Allegro assai"
PERFORMER "Nebra"
ISRC ES5190669100
INDEX 01 29:36:73
TRACK 11 AUDIO
TITLE "Andantino con Moto"
PERFORMER "Nebra"
ISRC ES5190669110
INDEX 01 33:54:39
TRACK 12 AUDIO
TITLE "Andante sostenuto"
PERFORMER "Nebra"
ISRC ES5190669120
INDEX 01 39:56:42
TRACK 13 AUDIO
TITLE "Allegro assai con moto"
PERFORMER "Nebra"
ISRC ES5190669130
INDEX 01 41:35:58
TRACK 14 AUDIO
TITLE "Ciegue, clame y suspire"
PERFORMER "Nebra"
ISRC ES5190669140
INDEX 01 46:52:15
TRACK 15 AUDIO
TITLE "Quien fio de un mar sereno?"
PERFORMER "Nebra"
ISRC ES5190669150
INDEX 01 48:11:22
TRACK 16 AUDIO
TITLE "Quién cielos?"
PERFORMER "Nebra"
ISRC ES5190669160
INDEX 01 54:46:48
TRACK 17 AUDIO
TITLE "Los halagos se mezclan"
PERFORMER "Nebra"
ISRC ES5190669170
INDEX 01 60:07:36
TRACK 18 AUDIO
TITLE "Como el zéfiro"
PERFORMER "Nebra"
ISRC ES5190669180
INDEX 01 61:47:39
TRACK 19 AUDIO
TITLE "Vacilante pensamiento"
PERFORMER "Nebra"
ISRC ES5190669190
INDEX 01 66:59:73



Показать сообщения:    

Текущее время: 09-Дек 12:45

Часовой пояс: UTC + 3


Вы не можете начинать темы
Вы не можете отвечать на сообщения
Вы не можете редактировать свои сообщения
Вы не можете удалять свои сообщения
Вы не можете голосовать в опросах
Вы не можете прикреплять файлы к сообщениям
Вы не можете скачивать файлы