Внук королевы Виктории – император Вильгельм II / Queen Victoria and the Crippled Kaisar (Брайан Мартин / Brian Henry Martin) [2013, Документальный, биография, история, IPTVRip]


Статистика раздачи [Обновить пиров]
Размер:  701 MB   |    Зарегистрирован:  8 месяцев 22 дня   |    Скачан:  0 раз

Полного источника не было: Никогда

 
   
 
 
 

[Цитировать]

Внук королевы Виктории – император Вильгельм II / Queen Victoria and the Crippled Kaisar
Дата/Год выпуска: 2013
Страна: Великобритания / DubleBand Film
Жанр: Документальный, биография, история
Продолжительность: 00:46:00
Перевод: Профессиональный (дублированный)
Доп. инфо о переводе: София Пегалова
Русские субтитры: нет
Оригинальная аудиодорожка: нет
Режиссер: Брайан Мартин / Brian Henry Martin
Телеканал: ТК "Viasat History"
Описание: В программе используется ранее неопубликованные письма королевской семьи, рассказывающие о трагической судьбе маленького мальчика, родившегося инвалидом. Когда Вики, старшая дочь королевы Виктории, вышла замуж за германского коронованного принца в 1858 году, этот брак должен был упрочнить связи между двумя великими европейскими державами, однако все пошло не по плану. Спустя год после свадьбы Вики перенесла крайне тяжелые роды, которые чуть не лишили ее жизни, а принц родился со многими физическими недостатками. Он родился с повреждённой левой рукой, что в то время считалось крайне зазорным. В связи с этим Вики пыталась сделать все возможное, чтобы избавить сына от увечья. Для лечения использовались зачастую нечеловеческие методы, что привело к крайне сложным и неоднозначным отношениям между Вики и Уильямом, в результате которых он вырос крайне агрессивным и холодным человеком, а также развил ненависть к стране, в которой родилась его мать.
Сэмпл: http://multi-up.com/1015657
качество: IPTVRip
формат: AVI
Видео: 720x400 (1.80:1), 25 fps, XviD build 66 ~1928 kbps avg, 0.27 bit/pixel
Аудио: 48 kHz, AC3 Dolby Digital, 2/0 (L,R) ch, ~192 kbps

MediaInfo

General
Complete name : E:\Pshichko66\Na zapis'\Документальные фильмы\Vnuk korolevy Viktorii – imperator Vil'gel'm II.avi
Format : AVI
Format/Info : Audio Video Interleave
File size : 701 MiB
Duration : 46mn 0s
Overall bit rate : 2 130 Kbps
Writing application : VirtualDubMod 1.5.10.3 | www.virtualdub-fr.org || (build 2550/release)
Writing library : VirtualDubMod build 2550/release
Video
ID : 0
Format : MPEG-4 Visual
Format profile : Advanced Simple@L5
Format settings, BVOP : 2
Format settings, QPel : No
Format settings, GMC : No warppoints
Format settings, Matrix : Custom
Codec ID : XVID
Codec ID/Hint : XviD
Duration : 46mn 0s
Bit rate : 1 929 Kbps
Width : 720 pixels
Height : 400 pixels
Display aspect ratio : 16:9
Frame rate : 25.000 fps
Color space : YUV
Chroma subsampling : 4:2:0
Bit depth : 8 bits
Scan type : Progressive
Compression mode : Lossy
Bits/(Pixel*Frame) : 0.268
Stream size : 635 MiB (91%)
Writing library : XviD 66
Audio
ID : 1
Format : AC-3
Format/Info : Audio Coding 3
Mode extension : CM (complete main)
Format settings, Endianness : Big
Codec ID : 2000
Duration : 46mn 0s
Bit rate mode : Constant
Bit rate : 192 Kbps
Channel count : 2 channels
Channel positions : Front: L R
Sampling rate : 48.0 KHz
Bit depth : 16 bits
Compression mode : Lossy
Stream size : 63.2 MiB (9%)
Alignment : Split accross interleaves
Interleave, duration : 40 ms (1.00 video frame)
Interleave, preload duration : 500 ms

Скриншоты

[teatrix.ru].t19544.torrent 
Торрент: Зарегистрирован [ 2016-03-18 12:35 ] · 8CBED616E51279555020EC4F9C3970F5D92808E2

Скачать .torrent

Скачать

55 KB

Статус: проверено
Скачан: 0 раз
Размер: 701 MB
terms.php



Быстрый ответ

Имя:

      
Для отправки сообщений необходимо включить JavaScript
Показать сообщения:    

Текущее время: 09-Дек 18:33

Часовой пояс: UTC + 3


Вы можете начинать темы
Вы можете отвечать на сообщения
Вы не можете редактировать свои сообщения
Вы не можете удалять свои сообщения
Вы не можете голосовать в опросах
Вы не можете прикреплять файлы к сообщениям
Вы можете скачивать файлы