(Oratorio) Saint-Saens - Oratorio de Noel (Selbig, Wilke, Markert - Dresdner Philharmonie, Flamig) & Prelude * J.S. Bach - Pastorale * J.C.F. Bach - Motette, Wachet Auf (Rheinische Kantorei, Max) - 1990, APE (image+.cue) lossless


Статистика раздачи [Обновить пиров]
Размер:  267 MB   |    Зарегистрирован:  8 месяцев 21 день   |    Скачан:  0 раз

Полного источника не было: Никогда

 
   
 
 
 

[Цитировать]

Camille Saint-Saëns - Oratorio de Noel
Жанр: Oratorio
Страна-производитель диска: Germany
Год издания диска: 1990
Издатель (лейбл): JPC
Номер по каталогу: 29 500
Дата записи: 1986-1990
Аудиокодек: APE
Тип рипа: image+.cue
Битрейт аудио: lossless
Продолжительность: 69'58
Источник: собственный рип
Наличие сканов в содержимом раздачи: да
Треклист / Исполнители:
Johann Sebastian Bach - Pastorale
1. Pastorale Für Orgel F-Dur BWV 590
Ullrich Böhme, Schuke-Orgelpositiv, Thomaskirche Leipzig
Johann Christoph Friedrich Bach - Motette, Wachet Auf, Ruft Uns Die Stimme
2. Wachet Auf, Ruft Uns Die Stimme
3. Zion Hört Die Wächter Singen
4. Gloria Sei Dir Gesungen
Rheinische Kantorei, Hermann Max
Christine Kyprie (Violoncello)
Claus Körfer (Kontrabass)
Christoph Lehmann (Orgel)
Camille Saint-Saëns - Prélude Et Fugue
5. Prélude Et Fugue
Joachim Dorfmüller, Klais-Orgel, Altenberger Dom
Camille Saint-Saëns - Weihnachtsoratorium
6. Nr. 1 Prélude
7. Nr. 2 Récit Et Choeur
8. Nr. 3 Air
9. Nr. 4 Air Et Choeur
10. Nr. 5 Duo
11. Nr. 6 Choeur
12. Nr. 7 Trio
13. Nr. 8 Quatuor
14. Nr. 9 Quintette Et Choeur
15. Nr. 10 Choeur
Ute Selbig (Sopran)
Elisabeth Wilke (Mezzosopran)
Annette Markert (Alt)
Armin Ude (Tenor)
Egbert Junghans (Bariton)
Dresdner Kreuzchor - Dresdner Philharmonie, Martin Flämig

Лог создания рипа

Exact Audio Copy V1.0 beta 3 from 29. August 2011
EAC extraction logfile from 25. November 2014, 11:53
Bach, J.S. - J.C.F. & Saint-Saëns / Pastorale, Wachet auf... Prelude & Weihnachtsoratorium
Used drive : TSSTcorpCDDVDW SE-208AB Adapter: 1 ID: 0
Read mode : Secure
Utilize accurate stream : Yes
Defeat audio cache : Yes
Make use of C2 pointers : No
Read offset correction : 6
Overread into Lead-In and Lead-Out : No
Fill up missing offset samples with silence : Yes
Delete leading and trailing silent blocks : No
Null samples used in CRC calculations : Yes
Used interface : Native Win32 interface for Win NT & 2000
Used output format : Monkey's Audio Lossless Encoder
Selected bitrate : High Lossless Compression
Quality : High
Add ID3 tag : Yes
Command line compressor : C:\Program Files (x86)\Exact Audio Copy\MAC\MAC.exe
TOC of the extracted CD
Track | Start | Length | Start sector | End sector
---------------------------------------------------------
1 | 0:00.32 | 12:30.43 | 32 | 56324
2 | 12:31.00 | 6:30.62 | 56325 | 85636
3 | 19:01.62 | 4:32.33 | 85637 | 106069
4 | 23:34.20 | 4:49.07 | 106070 | 127751
5 | 28:23.27 | 6:25.35 | 127752 | 156661
6 | 34:48.62 | 3:42.00 | 156662 | 173311
7 | 38:30.62 | 4:52.35 | 173312 | 195246
8 | 43:23.22 | 2:52.45 | 195247 | 208191
9 | 46:15.67 | 2:57.58 | 208192 | 221524
10 | 49:13.50 | 4:04.57 | 221525 | 239881
11 | 53:18.32 | 3:39.68 | 239882 | 256374
12 | 56:58.25 | 4:21.62 | 256375 | 276011
13 | 61:20.12 | 2:18.00 | 276012 | 286361
14 | 63:38.12 | 5:00.60 | 286362 | 308921
15 | 68:38.72 | 1:38.05 | 308922 | 316276
Range status and errors
Selected range
Filename D:\EAC\Bach, J.S. - J.C.F. & Saint-Saëns - Pastorale, Wachet auf... Prelude & Weihnachtsoratorium.wav
Peak level 97.7 %
Extraction speed 5.1 X
Range quality 99.9 %
Test CRC 1949B6C1
Copy CRC 1949B6C1
Copy OK
No errors occurred
AccurateRip summary
Track 1 accurately ripped (confidence 2) [1F577C33] (AR v2)
Track 2 accurately ripped (confidence 2) [DED0C21D] (AR v2)
Track 3 accurately ripped (confidence 2) [52BC3C65] (AR v2)
Track 4 accurately ripped (confidence 2) [AAE3F7C3] (AR v2)
Track 5 accurately ripped (confidence 2) [74C1ADBD] (AR v2)
Track 6 accurately ripped (confidence 2) [AA643FBB] (AR v2)
Track 7 accurately ripped (confidence 2) [267ECF9A] (AR v2)
Track 8 accurately ripped (confidence 2) [DE9230FB] (AR v2)
Track 9 accurately ripped (confidence 2) [8584BDBE] (AR v2)
Track 10 accurately ripped (confidence 2) [103010F2] (AR v2)
Track 11 accurately ripped (confidence 2) [57DB1640] (AR v2)
Track 12 accurately ripped (confidence 2) [E4953A53] (AR v2)
Track 13 accurately ripped (confidence 2) [46E50BB8] (AR v2)
Track 14 accurately ripped (confidence 2) [CAAC60D5] (AR v2)
Track 15 accurately ripped (confidence 2) [827871D1] (AR v2)
All tracks accurately ripped
End of status report
---- CUETools DB Plugin V2.1.3
[CTDB TOCID: CTdZ18CUAVMNxFhEVAK7D54wXsg-] disk not present in database, Submit result: discs with pregaps not supported in this protocol version
==== Log checksum EC488E3C9DFAAF0FB4B6DFBBAB2452495CF68CE2EBFE6D8EE8FEDA50CE8AD06F ====

Содержание индексной карты (.CUE)

REM GENRE Chorus
REM DATE 1990
REM DISCID B410790F
REM COMMENT "ExactAudioCopy v1.0b3"
PERFORMER "Bach, J.S. - J.C.F. & Saint-Saëns"
TITLE "Pastorale, Wachet auf... Prelude & Weihnachtsoratorium"
FILE "Bach, J.S. - J.C.F. & Saint-Saëns - Pastorale, Wachet auf... Prelude & Weihnachtsoratorium.ape" WAVE
TRACK 01 AUDIO
TITLE "Johann Sebastian Bach / Pastorale Für Orgel F-Dur BWV 590"
PERFORMER "Ullrich Böhme, Schuke-Orgelpositiv, Thomaskirche Leipzig"
INDEX 00 00:00:00
INDEX 01 00:00:32
TRACK 02 AUDIO
TITLE "'Wachet Auf, Ruft Uns Die Stimme'"
PERFORMER "Rheinische Kantorei, Christine Kyprie (Violoncello), Claus Körfer (Kontrabass..."
INDEX 00 12:26:17
INDEX 01 12:31:00
TRACK 03 AUDIO
TITLE "'Zion Hört Die Wächter Singen'"
PERFORMER "Rheinische Kantorei, Christine Kyprie (Violoncello), Claus Körfer (Kontrabass..."
INDEX 01 19:01:62
TRACK 04 AUDIO
TITLE "'Gloria Sei Dir Gesungen'"
PERFORMER "Rheinische Kantorei, Christine Kyprie (Violoncello), Claus Körfer (Kontrabass..."
INDEX 01 23:34:20
TRACK 05 AUDIO
TITLE "Camille Saint-Saens / Prélude Et Fugue"
PERFORMER "Joachim Dorfmüller, Klais-Orgel, Altenberger Dom"
INDEX 00 28:19:07
INDEX 01 28:23:27
TRACK 06 AUDIO
TITLE "Weihnachtsoratorium Nr. 1 Prélude"
PERFORMER "Ute Selbig (Sopran), Elisabeth Wilke (Mezzosopran), Annette Markert (Alt), Ar..."
INDEX 00 34:44:02
INDEX 01 34:48:62
TRACK 07 AUDIO
TITLE "Weihnachtsoratorium Nr. 2 Récit (Sopran, Alt, Tenor, Bariton) Et Choeur"
PERFORMER "Ute Selbig (Sopran), Elisabeth Wilke (Mezzosopran), Annette Markert (Alt), Ar..."
INDEX 01 38:30:62
TRACK 08 AUDIO
TITLE "Weihnachtsoratorium Nr. 3 Air (Mezzosopran) 'Expectans, Expectavi Dominum'"
PERFORMER "Ute Selbig (Sopran), Elisabeth Wilke (Mezzosopran), Annette Markert (Alt), Ar..."
INDEX 01 43:23:22
TRACK 09 AUDIO
TITLE "Weihnachtsoratorium Nr. 4 Air (Tenor) Et Choeur 'Domine, Ego Credidi /Qui In ..."
PERFORMER "Ute Selbig (Sopran), Elisabeth Wilke (Mezzosopran), Annette Markert (Alt), Ar..."
INDEX 01 46:15:67
TRACK 10 AUDIO
TITLE "Weihnachtsoratorium Nr. 5 Duo (Sopran, Bariton) 'Benedictus, Qui Venitin Nomi..."
PERFORMER "Ute Selbig (Sopran), Elisabeth Wilke (Mezzosopran), Annette Markert (Alt), Ar..."
INDEX 01 49:13:50
TRACK 11 AUDIO
TITLE "Weihnachtsoratorium Nr. 6 Choeur 'Quare Fremuerunt Gentes?'"
PERFORMER "Ute Selbig (Sopran), Elisabeth Wilke (Mezzosopran), Annette Markert (Alt), Ar..."
INDEX 01 53:18:32
TRACK 12 AUDIO
TITLE "Weihnachtsoratorium Nr. 7 Trio (Sopran, Tenor, Bariton) 'Tecum Principium'"
PERFORMER "Ute Selbig (Sopran), Elisabeth Wilke (Mezzosopran), Annette Markert (Alt), Ar..."
INDEX 01 56:58:25
TRACK 13 AUDIO
TITLE "Weihnachtsoratorium Nr. 8 Quatuor (Sopran, Mezzosopran, Alt, Tenor, Bariton) ..."
PERFORMER "Ute Selbig (Sopran), Elisabeth Wilke (Mezzosopran), Annette Markert (Alt), Ar..."
INDEX 01 61:20:12
TRACK 14 AUDIO
TITLE "Weihnachtsoratorium Nr. 10 Choeur 'Egrediator Ut Splendor'"
PERFORMER "Ute Selbig (Sopran), Elisabeth Wilke (Mezzosopran), Annette Markert (Alt), Ar..."
INDEX 01 63:38:12
TRACK 15 AUDIO
TITLE "Weihnachtsoratorium Nr. 10 Choeur 'Tollite Hostias'"
PERFORMER "Ute Selbig (Sopran), Elisabeth Wilke (Mezzosopran), Annette Markert (Alt), Ar..."
INDEX 01 68:38:72
[teatrix.ru].t19545.torrent 
Торрент: Зарегистрирован [ 2016-03-18 12:35 ] · AB72CA28F901103001CC24F26D6C0A7C343B09F1

Скачать .torrent

Скачать

11 KB

Статус: проверено
Скачан: 0 раз
Размер: 267 MB
terms.php



Быстрый ответ

Имя:

      
Для отправки сообщений необходимо включить JavaScript
Показать сообщения:    

Текущее время: 09-Дек 10:42

Часовой пояс: UTC + 3


Вы можете начинать темы
Вы можете отвечать на сообщения
Вы не можете редактировать свои сообщения
Вы не можете удалять свои сообщения
Вы не можете голосовать в опросах
Вы не можете прикреплять файлы к сообщениям
Вы можете скачивать файлы