(Classical) York Bowen - Phantasy Quintet; Piano Trios; Clarinet Sonata - Robert Plane, Gould Piano Trio, Mia Cooper, David Adams - 2014, FLAC (image+.cue) lossless


 

[Цитировать]

York Bowen - Phantasy Quintet; Piano Trios; Clarinet Sonata - Robert Plane, Gould Piano Trio, Mia Cooper, David Adams
Жанр: Classical
Страна-производитель диска: UK
Год издания диска: 2014
Издатель (лейбл): Chandos Records
Номер по каталогу: CHAN 10805
Дата записи: 2013
Аудиокодек: FLAC
Тип рипа: image+.cue
Битрейт аудио: lossless
Продолжительность: 78:29
Источник: собственный рип
Наличие сканов в содержимом раздачи: да
Треклист:
York Bowen (1884 – 1961)
[1]-[3] Clarinet Sonata in F minor, Op. 109 (1943)*
[4] Rhapsody Trio in A minor, Op. 80 (1925 – 26)
[5] Piano Trio in D minor (c. 1900, unfinished)
[6] Phantasy Quintet in D minor, Op. 93 (c. 1933)†
for Bass Clarinet and String Quartet
[7]-[9] Piano Trio in E minor, Op. 118 (1946)
Исполнители:
Robert Plane clarinet* • bass clarinet†
Gould Piano Trio
Lucy Gould violin†
Alice Neary cello†
Benjamin Frith piano*
with
Mia Cooper violin†
David Adams viola†

Лог создания рипа

Exact Audio Copy V1.0 beta 3 from 29. August 2011
EAC extraction logfile from 21. November 2014, 19:57
Robert Plane, Gould Piano Trio / Bowen - Chamber Works
Used drive : HL-DT-STDVDRAM GU70N Adapter: 0 ID: 0
Read mode : Secure
Utilize accurate stream : Yes
Defeat audio cache : Yes
Make use of C2 pointers : No
Read offset correction : 48
Overread into Lead-In and Lead-Out : No
Fill up missing offset samples with silence : Yes
Delete leading and trailing silent blocks : No
Null samples used in CRC calculations : Yes
Used interface : Native Win32 interface for Win NT & 2000
Used output format : User Defined Encoder
Selected bitrate : 128 kBit/s
Quality : High
Add ID3 tag : No
Command line compressor : C:\Program Files (x86)\Exact Audio Copy\Flac\flac.exe
Additional command line options : -V -8 -T "Date=%year%" -T "Genre=%genre%" %source%
TOC of the extracted CD
Track | Start | Length | Start sector | End sector
---------------------------------------------------------
1 | 0:00.00 | 7:36.33 | 0 | 34232
2 | 7:36.33 | 3:06.50 | 34233 | 48232
3 | 10:43.08 | 4:57.36 | 48233 | 70543
4 | 15:40.44 | 13:35.00 | 70544 | 131668
5 | 29:15.44 | 11:09.06 | 131669 | 181849
6 | 40:24.50 | 14:13.35 | 181850 | 245859
7 | 54:38.10 | 9:58.57 | 245860 | 290766
8 | 64:36.67 | 8:04.18 | 290767 | 327084
9 | 72:41.10 | 5:47.35 | 327085 | 353144
Range status and errors
Selected range
Filename C:\temp\CHAN_10805 - Bowen - Chamber Works\Bowen - Chamber Works.wav
Peak level 98.8 %
Extraction speed 2.3 X
Range quality 100.0 %
Test CRC BE6A97AD
Copy CRC BE6A97AD
Copy OK
No errors occurred
AccurateRip summary
Track 1 not present in database
Track 2 not present in database
Track 3 not present in database
Track 4 not present in database
Track 5 not present in database
Track 6 not present in database
Track 7 not present in database
Track 8 not present in database
Track 9 not present in database
None of the tracks are present in the AccurateRip database
End of status report
==== Log checksum 828A962B67C9B30A2583E5C8E2BD9566E1156BD8700EA33707C288B22F0E0BCF ====



Показать сообщения:    

Текущее время: 08-Дек 11:00

Часовой пояс: UTC + 3


Вы не можете начинать темы
Вы не можете отвечать на сообщения
Вы не можете редактировать свои сообщения
Вы не можете удалять свои сообщения
Вы не можете голосовать в опросах
Вы не можете прикреплять файлы к сообщениям
Вы не можете скачивать файлы