Status quo. Действительное положение вещей. Заманбек Нуркадилов.(Владимир Тюлькин) [2002, Документальный, DVDRip]


Статистика раздачи [Обновить пиров]
Размер:  668 MB   |    Зарегистрирован:  8 месяцев 16 дней   |    Скачан:  0 раз

Полного источника не было: Никогда

 
   
 
 
 

[Цитировать]

Status quo. Действительное положение вещей. Заманбек Нуркадилов.
Дата/Год выпуска: 2002
Страна: Казахстан
Жанр: Документальный
Продолжительность: 00:19:51
Перевод: Не требуется
Русские субтитры: нет
Оригинальная аудиодорожка: русский
Режиссер: Владимир Тюлькин
Телеканал: Тан
Описание: В гостях у программы "Status quo" известный политический деятель Казахстана Заманбек Нуркадилов.
качество: DVDRip
формат: MPG
Видео: MPEG2, 704х576pix, 4:3, 25.000 fps, 4 351 Kbps
Аудио: AC-3, 256 Kbps, 48 KHz, 2 channels
Сэмпл: http://multi-up.com/1015954

MediaInfo

MediaInfo: General
Complete name : C:\Grafika\нуркадилов\Заманбек Нуркадилов.m2p
Format : MPEG-PS
File size : 668 MiB
Duration : 19mn 51s
Overall bit rate mode : Variable
Overall bit rate : 4 701 Kbps
Video #224
ID : 224 (0xE0)
Format : MPEG Video
Format version : Version 2
Format profile : Main@Main
Format settings, BVOP : Yes
Format settings, Matrix : Default
Format settings, GOP : M=3, N=12
Duration : 19mn 51s
Bit rate mode : Variable
Bit rate : 4 352 Kbps
Maximum bit rate : 9 579 Kbps
Width : 704 pixels
Height : 576 pixels
Display aspect ratio : 4:3
Frame rate : 25.000 fps
Standard : PAL
Color space : YUV
Chroma subsampling : 4:2:0
Bit depth : 8 bits
Scan type : Interlaced
Scan order : Top Field First
Compression mode : Lossy
Bits/(Pixel*Frame) : 0.429
Stream size : 618 MiB (93%)
Audio #189-128
ID : 189 (0xBD)-128 (0x80)
Format : AC-3
Format/Info : Audio Coding 3
Mode extension : CM (complete main)
Muxing mode : DVD-Video
Duration : 19mn 51s
Bit rate mode : Constant
Bit rate : 256 Kbps
Channel(s) : 2 channels
Channel positions : Front: L R
Sampling rate : 48.0 KHz
Bit depth : 16 bits
Compression mode : Lossy
Delay relative to video : -80ms
Stream size : 36.3 MiB (5%)

Скриншоты

[teatrix.ru].t19555.torrent 
Торрент: Зарегистрирован [ 2016-03-18 12:43 ] · FF10B848C9DD8ECD749EEC071E3B6CC4CD8EFF53

Скачать .torrent

Скачать

14 KB

Статус: проверено
Скачан: 0 раз
Размер: 668 MB
terms.php



Быстрый ответ

Имя:

      
Для отправки сообщений необходимо включить JavaScript
Показать сообщения:    

Текущее время: 04-Дек 09:07

Часовой пояс: UTC + 3


Вы можете начинать темы
Вы можете отвечать на сообщения
Вы не можете редактировать свои сообщения
Вы не можете удалять свои сообщения
Вы не можете голосовать в опросах
Вы не можете прикреплять файлы к сообщениям
Вы можете скачивать файлы