(Classical) Francis Poulenc - Stabat Mater; Sept Repons des Tenebres - Carolyn Sampson, Cappella Amsterdam, Estonian Philharmonic Chamber Choir, Estonian National Symphony Orchestra, Daniel Reuss - 2014, FLAC (image+.cue) lossless


Статистика раздачи [Обновить пиров]
Размер:  277 MB   |    Зарегистрирован:  8 месяцев 20 дней   |    Скачан:  0 раз

Полного источника не было: Никогда

 
   
 
 
 

[Цитировать]

Francis Poulenc - Stabat Mater; Sept Répons des Ténèbres - Carolyn Sampson, Cappella Amsterdam, Estonian Philharmonic Chamber Choir, Estonian National Symphony Orchestra, Daniel Reuss
Жанр: Classical
Страна-производитель диска: France
Год издания диска: 2014
Издатель (лейбл): Harmonia Mundi
Номер по каталогу: HMC902149
Дата записи: 2012
Аудиокодек: FLAC
Тип рипа: image+.cue
Битрейт аудио: lossless
Продолжительность: 62:12
Источник: собственный рип
Наличие сканов в содержимом раздачи: да
Треклист:
Francis Poulenc (1899-1963)
[1]-[7] Sept Répons des Ténèbres
[8]-[19] Stabat Mater
Исполнители:
Carolyn Sampson soprano
Cappella Amsterdam
Estonian Philharmonic Chamber Choir
Estonian National Symphony Orchestra
Daniel Reuss
conductor

Лог создания рипа

Exact Audio Copy V1.0 beta 3 from 29. August 2011
EAC extraction logfile from 24. November 2014, 22:25
Carolyn Sampson, Cappella Amsterdam, Estonian Philharmonic Chamber Choir, Estonian National SO, Daniel Reuss / Poulenc - Stabat Mater; Sept Repons des Tenebres
Used drive : HL-DT-STDVDRAM GU70N Adapter: 0 ID: 0
Read mode : Secure
Utilize accurate stream : Yes
Defeat audio cache : Yes
Make use of C2 pointers : No
Read offset correction : 48
Overread into Lead-In and Lead-Out : No
Fill up missing offset samples with silence : Yes
Delete leading and trailing silent blocks : No
Null samples used in CRC calculations : Yes
Used interface : Native Win32 interface for Win NT & 2000
Used output format : User Defined Encoder
Selected bitrate : 128 kBit/s
Quality : High
Add ID3 tag : No
Command line compressor : C:\Program Files (x86)\Exact Audio Copy\Flac\flac.exe
Additional command line options : -V -8 -T "Date=%year%" -T "Genre=%genre%" %source%
TOC of the extracted CD
Track | Start | Length | Start sector | End sector
---------------------------------------------------------
1 | 0:00.00 | 3:44.33 | 0 | 16832
2 | 3:44.33 | 2:42.50 | 16833 | 29032
3 | 6:27.08 | 4:27.57 | 29033 | 49114
4 | 10:54.65 | 3:01.02 | 49115 | 62691
5 | 13:55.67 | 4:10.69 | 62692 | 81510
6 | 18:06.61 | 3:11.37 | 81511 | 95872
7 | 21:18.23 | 6:01.52 | 95873 | 122999
8 | 27:20.00 | 4:50.09 | 123000 | 144758
9 | 32:10.09 | 1:11.09 | 144759 | 150092
10 | 33:21.18 | 2:54.23 | 150093 | 163165
11 | 36:15.41 | 1:27.53 | 163166 | 169743
12 | 37:43.19 | 1:33.10 | 169744 | 176728
13 | 39:16.29 | 4:15.34 | 176729 | 195887
14 | 43:31.63 | 1:26.13 | 195888 | 202350
15 | 44:58.01 | 2:32.27 | 202351 | 213777
16 | 47:30.28 | 3:35.07 | 213778 | 229909
17 | 51:05.35 | 4:11.34 | 229910 | 248768
18 | 55:16.69 | 2:07.12 | 248769 | 258305
19 | 57:24.06 | 4:46.16 | 258306 | 279771
Range status and errors
Selected range
Filename C:\temp\HMC902149 - Poulenc - Stabat Mater; Sept Repons des Tenebres\Poulenc - Stabat Mater; Sept Repons des Tenebres.wav
Peak level 98.0 %
Extraction speed 5.1 X
Range quality 100.0 %
Test CRC FBFCBBD0
Copy CRC FBFCBBD0
Copy OK
No errors occurred
AccurateRip summary
Track 1 accurately ripped (confidence 4) [D55B7C70] (AR v2)
Track 2 accurately ripped (confidence 4) [2FAB49A0] (AR v2)
Track 3 accurately ripped (confidence 4) [BC335DCC] (AR v2)
Track 4 accurately ripped (confidence 4) [C716FEFD] (AR v2)
Track 5 accurately ripped (confidence 4) [5D013437] (AR v2)
Track 6 accurately ripped (confidence 4) [EE34F5E2] (AR v2)
Track 7 accurately ripped (confidence 4) [6C44FA54] (AR v2)
Track 8 accurately ripped (confidence 4) [0BE06CA4] (AR v2)
Track 9 accurately ripped (confidence 4) [12E48D7B] (AR v2)
Track 10 accurately ripped (confidence 4) [E645814E] (AR v2)
Track 11 accurately ripped (confidence 4) [C8EC6152] (AR v2)
Track 12 accurately ripped (confidence 4) [C3E3AF5B] (AR v2)
Track 13 accurately ripped (confidence 4) [55E78E9E] (AR v2)
Track 14 accurately ripped (confidence 4) [6724270D] (AR v2)
Track 15 accurately ripped (confidence 4) [A0865842] (AR v2)
Track 16 accurately ripped (confidence 4) [8A9F1C09] (AR v2)
Track 17 accurately ripped (confidence 4) [C455EB33] (AR v2)
Track 18 accurately ripped (confidence 4) [C5715431] (AR v2)
Track 19 accurately ripped (confidence 4) [0046E453] (AR v2)
All tracks accurately ripped
End of status report
==== Log checksum EE2C184AB004638AF68427CA1E13A5F1161A02D2AC1008D62F8B98F9800645BD ====
[teatrix.ru].t19558.torrent 
Торрент: Зарегистрирован [ 2016-03-18 12:43 ] · 050CDF838B26DBDA8198B40ACAF774DEB7EFCAAB

Скачать .torrent

Скачать

23 KB

Статус: проверено
Скачан: 0 раз
Размер: 277 MB
terms.php



Быстрый ответ

Имя:

      
Для отправки сообщений необходимо включить JavaScript
Показать сообщения:    

Текущее время: 08-Дек 07:01

Часовой пояс: UTC + 3


Вы можете начинать темы
Вы можете отвечать на сообщения
Вы не можете редактировать свои сообщения
Вы не можете удалять свои сообщения
Вы не можете голосовать в опросах
Вы не можете прикреплять файлы к сообщениям
Вы можете скачивать файлы