Белка (Екатерина Гранитова) [2013 г., мистический триллер-детектив, SATRip] Московский драматический театр на Малой Бронной


 

[Цитировать]

Белка Название театра: Московский драматический театр на Малой Бронной.
Год выпуска: 2013.
Жанр: мистический триллер-детектив.
Продолжительность: 02:15:31.
Режиссеры: Екатерина Гранитова.
Действующие лица и исполнители:
.....ий (Белка) - Дмитрий Сердюк,
Митя Акутин - Леонид Тележинский,
Жора Азнаурян - Юрий Тхагалегов,
Кеша Лупетин - Александр Бобров,
Лилиана Борисовна - заслуженная артистка Армении Вера Бабичева,
Февралев - Владимир Яворский,
Девочка-флейтистка - Ольга Николаева,
Мама Лилианы - Марк Вдовин,
Тетушка Маро - Александр Шульгин,
Ева - Ольга Вяземская (Смирнова),
Дельфин - Мариэтта Цигаль-Полищук,
Пан Зборовский - Олег Ларченко,
Зверсовет - Олег Ларченко, Мариэтта Цигаль-Полищук, Александр Шульгин,
Ангелы - Марк Вдовин, Мариэтта Цигаль-Полищук,
Зайцы-контролеры, Золотистые призраки - Марк Вдовин, Руслан Егоров, Любовь Иванова, Анна Смирнова, Юлиана Сополева.
О спектакле:
Роман-сказка "Белка" был написан Анатолием Кимом в 1985 году. Анатолий Ким в своем романе видит окружающую действительность как мир, в котором среди людей живут оборотни - полулюди-полузвери. Люди способны творить, зверьми же руководят хищнические инстинкты. Люди, среди которых настоящих не так уж много, а в основном недружелюбные полулюди-полузвери, уничтожают талантливых художников. Трое погибают. Четвертый, единственный уцелевший, предпринимает попытки понять, как человеку настоящему выжить среди этого зверья и оборотней. Ему настолько страшно, что он даже имя свое боится называть. Но он должен пересилить страх и выяснить, почему погибли трое его друзей - молодых художников, и какая опасность угрожает ему самому.
Дополнительная информация:
Страна: Россия .
Выпущено: © Правительство Москвы.
Автор: Анатолий Ким.
Режиссер-постановщик: заслуженный деятель искусств России Сергей Голомазов.
Художник-постановщик: Елена Ярочкина.
Художник по свету: Андрей Ребров.
Музыкальный руководитель: Юрий Тхагалегов.
Хореограф: Рамуне Ходоркайте.
Художественный руководитель Театра на Малой Бронной: заслуженный деятель искусств России Сергей Голомазов.
Премьера спектакля состоялась 1 ноября 2012 года.

О спектакле.
Релиз

Качество видео:...SATRip
Формат:.................AVI
Видео:..720x400 (1.80:1), 25 fps, XviD MPEG-4 ~1403 kbps avg, 0.20 bit/pixel
Аудио:..44.100 kHz, MPEG Layer 3, 2 ch, ~128.00 kbps avg

Отчет MI

Общее
Полное имя : Belka_Teatr.na.Maloj.Bronnoj.2013.XviD.SATRip.fenixclub.avi
Format : AVI
Format/Info : Audio Video Interleave
File size : 1.46 GiB
Duration : 2h 15mn
Overall bit rate : 1 542 Kbps
Writing application : VirtualDubModRus 1.5.10.2 (build 2542/release)
Writing library : VirtualDub build 32842/release
Video
ID : 0
Format : MPEG-4 Visual
Format profile : Advanced Simple@L5
Format settings, BVOP : 2
Format settings, QPel : No
Format settings, GMC : No warppoints
Format settings, Matrix : Default (H.263)
Muxing mode : Packed bitstream
Codec ID : XVID
Codec ID/Hint : XviD
Duration : 2h 15mn
Bit rate : 1 404 Kbps
Width : 720 pixels
Height : 400 pixels
Display aspect ratio : 16:9
Frame rate : 25.000 fps
Color space : YUV
Chroma subsampling : 4:2:0
Bit depth : 8 bits
Scan type : Progressive
Compression mode : Lossy
Bits/(Pixel*Frame) : 0.195
Stream size : 1.33 GiB (91%)
Writing library : XviD 1.2.1 (UTC 2008-12-04)
Audio
ID : 1
Format : MPEG Audio
Format version : Version 1
Format profile : Layer 3
Mode : Joint stereo
Mode extension : MS Stereo
Codec ID : 55
Codec ID/Hint : MP3
Duration : 2h 15mn
Bit rate mode : Constant
Bit rate : 128 Kbps
Channel(s) : 2 channels
Sampling rate : 44.1 KHz
Compression mode : Lossy
Stream size : 124 MiB (8%)
Alignment : Split accross interleaves
Interleave, duration : 40 ms (1.00 video frame)
Interleave, preload duration : 500 ms
Writing library : LAME3.98

Скриншот с названием постановки

Скриншоты


Альтернативный хост





Показать сообщения:    

Текущее время: 07-Дек 13:39

Часовой пояс: UTC + 3


Вы не можете начинать темы
Вы не можете отвечать на сообщения
Вы не можете редактировать свои сообщения
Вы не можете удалять свои сообщения
Вы не можете голосовать в опросах
Вы не можете прикреплять файлы к сообщениям
Вы не можете скачивать файлы