Джузеппе Верди - Сборник лучших арий / Tutto Verdi - The Complete Operas Highlights [2012, Opera, Blu-ray 1080i]


 

[Цитировать]

Верди - Сборник лучших арий / Tutto Verdi - The Complete Operas Highlights
Год выпуска: 2012
Лейбл: C Major, Unitel Classica
Страна-производитель: Великобритания, США
Жанр: Opera
Продолжительность: 01:38:04
Язык: Итальянский
Субтитры: Английские, итальянские
Режиссеры: Pier Luigi Pizzi (Пьер Луиджи Пицци), Tiziano Mancini (Тициано Манчини), Pier´Alli (Пьер'Алли), Daniele Abbado (Даниэле Аббадо)
Дирижеры: Antonello Allemandi (Антонелло Аллеманди), Bruno Bartoletti (Бруно Бартолетти), Andrea Battistoni (Андреа Баттистони), Daniele Callegari (Даниеле Каллегари), Antonio Fogliani (Антонио Фольяни), Gianluigi Gelmetti (Джанлуиджи Джельметти), Michele Mariotti (Микеле Мариотти ), Carlo Montanaro (Карло Монтанаро), Donato Renzetti (Донато Рензетти), Yuri Temirkanov (Юрий Темирканов), Massimo Zanetti (Массимо Дзанетти)
Исполнители: Anna Caterina Antonacci (Анна Катерина Антоначчи), Barbara Bargnesi (Барбара Баргнези), Silvia Dalla Benetta (Сильвия Далла Бенетта), Daniela Dessi (Даниэлла Десси), Norma Fantini (Норма Фантини), Tamar Iveri (Тамар Ивери), Nino Machaidze (Нино Мачаидзе), Susan Neves (Сьюзан Невес), Dimitra Theodossiou (Димитра Теодоссиу), Sylvie Valaire (Сильвия Валери), Svetla Vassileva (Светлана Васильева), Marcelo Álvarez (Марсело Альварес), Marco Berti (Марко Берти), Francesco Demuro (Франческо Демуро), Antonio Gandia (Антонио Гандиа), Carlo Guelfi (Карло Гелфи), Ambrogio Maestri (Амброджо Маэстри), Francesco Meli (Франческо Мели), Leo Nucci (Лео Нуччи), Luca Salsi (Лука Сальси), Roberto Scandiuzzi (Роберто Скандьюцци), Vladimir Stoyanov (Владимир Стоянов)
Orchestra e Coro del Teatro Regio di Parma (хор и оркестр Teatro Regio в Парме)
Треклист:
01. Oberto - Sinfonia
02. Un giorno di regno - «Ah, non m’hanno ingannata! … Grave a core innamorato»
03. Nabucco - «Va’, pensiero, sull’ali dorate»
04. I Lombardi - «Oh! Ma pensa … Come poteva un angelo»
05. Ernani - «Non t’ascolto, mia sarai … Tu se’ Ernani!»
06. I due Foscari - «Eccomi solo alfine … O vecchio cor, che batti»
07. Giovanna d’Arco - «O fatidica foresta»
08. Attila - «Urli, rapine … Eroi, levatevi!»
09. Macbeth - «Fatal mia donna!»
10. Il corsaro - «Ne sulla terra … Vola talor dal carcere»
11. Luisa Miller - «Quando le sere al placido»
12. Rigoletto - «Un dì, se ben rammentomi … Bella figlia dell’amore»
13. Il trovatore - «L’onda de’ suoni mistici … Di quella pira»
14. La traviata - «Di Provenza il mar, il suol»
15. I Vespri siciliani - «Merce, dilette amiche»
16. Simon Boccanegra - «Plebe! Patrizi! Popol dalla feroce storia!»
17. Un ballo in maschera - «Forse la soglia attinse … Ma se m’è forza perderti»
18. La forza del destino - «Pace, pace, mio Dio»
19. Aida - «Gloria all’Egitto, ad Iside” – Marcia trionfale
20. Falstaff - «Facciamo il parentado … Tutto nel mondo è burla»
Описание: ТУТТО ВЕРДИ – это проект, приуроченный к двухсотлетию Верди. Он устанавливает планку, по которым будут оценены все подобные проекты. Запись осуществлена в Teatro Regio в Парме.

Оригинальное описание

TUTTO VERDI – this project to mark the Verdi bicentenary sets standards by which all similar projects will be judged. It includes all twenty-six operas by the greatest Italian stage composer, together with his immortal Requiem, all of them in definitive performances from the Teatro Regio in Parma.
Бонусы:
Introduction to Un giorno di regno (1080i; 10:40)
Introduction to Nabucco (1080i; 10:38)
Unitel Classica – TV Trailer (1080i; 2:00)
Качество видео: Blu-ray
Формат/Контейнер: BDMV
Видео кодек: MPEG4
Аудио кодек: LPCM, DTS
Видео поток: MPEG-4 Video, 1920x1080, 30419 kbps, 29.970 fps
Аудио поток: LPCM, 2304 kbps, 48 kHz, 2 ch. DTS-HD MA, 4294 kbps, 48 kHz, 6 ch

BD-Info

DISC INFO:
Disc Title: Tutto Verdi - The Complete Operas Highlights (2012) (Blu-ray 1080i, AVC, DTS-HD 5.1)
Disc Size: 34,564,052,145 bytes
Protection: AACS
BD-Java: No
BDInfo: 0.5.8
PLAYLIST REPORT:
Name: 00001.MPLS
Length: 1:38:04.311 (h:m:s.ms)
Size: 28,695,422,976 bytes
Total Bitrate: 39.01 Mbps
VIDEO:
Codec Bitrate Description
----- ------- -----------
MPEG-4 AVC Video 30419 kbps 1080i / 29.970 fps / 16:9 / High Profile 4.1
AUDIO:
Codec Language Bitrate Description
----- -------- ------- -----------
LPCM Audio Italian 2304 kbps 2.0 / 48 kHz / 2304 kbps / 24-bit
DTS-HD Master Audio Italian 4294 kbps 5.1 / 48 kHz / 4294 kbps / 24-bit (DTS Core: 5.1 / 48 kHz / 1509 kbps / 24-bit)
SUBTITLES:
Codec Language Bitrate Description
----- -------- ------- -----------
Presentation Graphics Italian 10.244 kbps
Presentation Graphics English 11.624 kbps
FILES:
Name Time In Length Size Total Bitrate
---- ------- ------ ---- -------------
00001.M2TS 0:00:00.000 1:37:46.227 28,685,776,896 39,120
00000.M2TS 1:37:46.227 0:00:09.042 4,823,040 4,267
00005.M2TS 1:37:55.269 0:00:09.042 4,823,040 4,267
Семпл

Скриншоты


Скриншоты доп. материалов




Показать сообщения:    

Текущее время: 20-Янв 14:58

Часовой пояс: UTC + 3


Вы не можете начинать темы
Вы не можете отвечать на сообщения
Вы не можете редактировать свои сообщения
Вы не можете удалять свои сообщения
Вы не можете голосовать в опросах
Вы не можете прикреплять файлы к сообщениям
Вы не можете скачивать файлы