1830 (Виктор Попов) [2012 г., Украина, трагедия, WEB-DLRip] Запорожский академический областной музыкально-драматический театр им. В.Г. Магара


 

[Цитировать]

1830 (3 акта) Название театра: Запорожский академический областной музыкально-драматический театр им. В.Г. Магара.
Год выпуска: 2012.
Страна: Украина .
Жанр: трагедия.
Продолжительность: 00:56:12 + 01:05:38 + 00:54:45 (02:56:35).
Язык: русский.
Режиссер: Виктор Попов.
Действующие лица и исполнители:
Луиза де Реналь - заслуженная артистка Украины Оксана Туриянская,
Анри де Реналь, ее муж - народный артист Украины Юрий Бакум,
Маркиз де Ла-Моль - заслуженный артист Украины Владимир Голяк,
Матильда де Ла-Моль, его дочь - Наталья Зубик,
Норбер де Ла-Моль, его сын - Антон Попудренко,
Жульен Сорель - Михаил Савицкий,
Огюст Сорель, его отец - народный артист Украины Иван Смолий,
Фантом Жульена - Сергей Чмыхайло,
Фуке, друг Жульена - Николай Грушковский,
Аббат Шелан - Евгений Козьмик,
Председатель суда - Максим Игнатьев,
Прокурор - Евгений Дзига,
Адвокат - Андрей Косодий,
Секретарь суда - Олег Котенёв,
Аббат Трюфо, 1-й свидетель - Денис Астафьев,
Пан Мадлен, 2-й свидетель - Александр Волчков,
Тюремщик - заслуженный артист Украины Анатолий Сиротенко,
Исполнительная служба, охранники - Александр Блинов, Дмитрий Клопот,
Дети - Никита Павелко, Леонид Татунов,
Присяжные и парижане - артисты театра.
О спектакле:
Сценическая версия романа Фредерика де Стендаля "Красное и черное".
Динамический и романтический спектакль "1830" - это сконцентрированная театральная версия культового французского романа, ставшего фактически первым психологическим романом мировой литературы.

Дополнительная информация:
Страна: Украина .
Выпущено: "Театр PRO Видео".
Автор: Фредерик де Стендаль.
Автор инсценировки и режиссер-постановщик: Виктор Попов.
Автор идеи постановки и художник-постановщик: заслуженный деятель искусств Украины Валентин Слонов.
Художник по костюмам: Ирина Кохан.
Художник по свету: заслуженный работник культуры Украины Анатолий Иванов.
Видеоарт и художник видеопроекции: Геннадий Лещенко.
Музыкальное и шумовое оформление: Александр Сурженко, Виктор Попов.
Автор текста "Марсельеза Любви" и исполнение: Катя Стаценко, аранжировка: Юрий Крюков.
Художественный руководитель театра: Виктор Попов.
Главный режиссер театра: заслуженный деятель искусств Украины Евгений Головатюк.
Премьера спектакля состоялась 16 июня 2012 года.
Релиз
Рип sharky.

Качество видео:...WEB-DLRip
Формат:.................AVI
Видео:..704x528 (1.33:1), 25 fps, XviD build 47 ~1561 kbps avg, 0.17 bit/pixel
Аудио:..48 kHz, AC3 Dolby Digital, 2/0 (L,R) ch, ~192 kbps

Отчет MI

1-й акт
Общее
Полное имя : 1830_Zaporojskij.AUMDT.im.Magara.(3.akta.iz.3).2012.XviD.WEB-DLRip.fenixclub\1830_Zaporojskij.AUMDT.im.Magara.(1-ij.akt.iz.3).2012.XviD.WEB-DLRip.fenixclub.avi
Format : AVI
Format/Info : Audio Video Interleave
File size : 709 MiB
Duration : 56mn 12s
Overall bit rate : 1 764 Kbps
Writing application : VirtualDubMod 1.5.10.2 (build 2540/release)
Writing library : VirtualDubMod build 2540/release
Video
ID : 0
Format : MPEG-4 Visual
Format profile : Advanced Simple@L5
Format settings, BVOP : 1
Format settings, QPel : No
Format settings, GMC : No warppoints
Format settings, Matrix : Default (H.263)
Codec ID : XVID
Codec ID/Hint : XviD
Duration : 56mn 12s
Bit rate : 1 562 Kbps
Width : 704 pixels
Height : 528 pixels
Display aspect ratio : 4:3
Frame rate : 25.000 fps
Color space : YUV
Chroma subsampling : 4:2:0
Bit depth : 8 bits
Scan type : Progressive
Compression mode : Lossy
Bits/(Pixel*Frame) : 0.168
Stream size : 628 MiB (89%)
Writing library : XviD 1.2.0.dev47 (UTC 2006-11-01)
Audio
ID : 1
Format : AC-3
Format/Info : Audio Coding 3
Mode extension : CM (complete main)
Format settings, Endianness : Big
Codec ID : 2000
Duration : 56mn 12s
Bit rate mode : Constant
Bit rate : 192 Kbps
Channel(s) : 2 channels
Channel positions : Front: L R
Sampling rate : 48.0 KHz
Bit depth : 16 bits
Compression mode : Lossy
Stream size : 77.2 MiB (11%)
Alignment : Split accross interleaves
Interleave, duration : 40 ms (1.00 video frame)
Interleave, preload duration : 500 ms.
2-й акт
Общее
Полное имя : 1830_Zaporojskij.AUMDT.im.Magara.(3.akta.iz.3).2012.XviD.WEB-DLRip.fenixclub\1830_Zaporojskij.AUMDT.im.Magara.(2-ij.akt.iz.3).2012.XviD.WEB-DLRip.fenixclub.avi
Format : AVI
Format/Info : Audio Video Interleave
File size : 827 MiB
Duration : 1h 5mn
Overall bit rate : 1 762 Kbps
Writing application : VirtualDubMod 1.5.10.2 (build 2542/release)
Writing library : VirtualDubMod build 2542/release
Video
ID : 0
Format : MPEG-4 Visual
Format profile : Advanced Simple@L5
Format settings, BVOP : 1
Format settings, QPel : No
Format settings, GMC : No warppoints
Format settings, Matrix : Default (H.263)
Codec ID : XVID
Codec ID/Hint : XviD
Duration : 1h 5mn
Bit rate : 1 561 Kbps
Width : 704 pixels
Height : 528 pixels
Display aspect ratio : 4:3
Frame rate : 25.000 fps
Color space : YUV
Chroma subsampling : 4:2:0
Bit depth : 8 bits
Scan type : Progressive
Compression mode : Lossy
Bits/(Pixel*Frame) : 0.168
Stream size : 733 MiB (89%)
Writing library : XviD 1.2.0.dev47 (UTC 2006-11-01)
Audio
ID : 1
Format : AC-3
Format/Info : Audio Coding 3
Mode extension : CM (complete main)
Format settings, Endianness : Big
Codec ID : 2000
Duration : 1h 5mn
Bit rate mode : Constant
Bit rate : 192 Kbps
Channel(s) : 2 channels
Channel positions : Front: L R
Sampling rate : 48.0 KHz
Bit depth : 16 bits
Compression mode : Lossy
Stream size : 90.1 MiB (11%)
Alignment : Split accross interleaves
Interleave, duration : 40 ms (1.00 video frame)
Interleave, preload duration : 500 ms.
3-й акт
Общее
Полное имя : 1830_Zaporojskij.AUMDT.im.Magara.(3.akta.iz.3).2012.XviD.WEB-DLRip.fenixclub\1830_Zaporojskij.AUMDT.im.Magara.(3-ij.akt.iz.3).2012.XviD.WEB-DLRip.fenixclub.avi
Format : AVI
Format/Info : Audio Video Interleave
File size : 691 MiB
Duration : 54mn 45s
Overall bit rate : 1 764 Kbps
Writing application : VirtualDubMod 1.5.10.2 (build 2540/release)
Writing library : VirtualDubMod build 2540/release
Video
ID : 0
Format : MPEG-4 Visual
Format profile : Advanced Simple@L5
Format settings, BVOP : 1
Format settings, QPel : No
Format settings, GMC : No warppoints
Format settings, Matrix : Default (H.263)
Codec ID : XVID
Codec ID/Hint : XviD
Duration : 54mn 45s
Bit rate : 1 562 Kbps
Width : 704 pixels
Height : 528 pixels
Display aspect ratio : 4:3
Frame rate : 25.000 fps
Color space : YUV
Chroma subsampling : 4:2:0
Bit depth : 8 bits
Scan type : Progressive
Compression mode : Lossy
Bits/(Pixel*Frame) : 0.168
Stream size : 612 MiB (89%)
Writing library : XviD 1.2.0.dev47 (UTC 2006-11-01)
Audio
ID : 1
Format : AC-3
Format/Info : Audio Coding 3
Mode extension : CM (complete main)
Format settings, Endianness : Big
Codec ID : 2000
Duration : 54mn 45s
Bit rate mode : Constant
Bit rate : 192 Kbps
Channel(s) : 2 channels
Channel positions : Front: L R
Sampling rate : 48.0 KHz
Bit depth : 16 bits
Compression mode : Lossy
Stream size : 75.2 MiB (11%)
Alignment : Split accross interleaves
Interleave, duration : 40 ms (1.00 video frame)
Interleave, preload duration : 500 ms.

Скриншоты


Альтернативный хост





Показать сообщения:    

Текущее время: 04-Дек 15:18

Часовой пояс: UTC + 3


Вы не можете начинать темы
Вы не можете отвечать на сообщения
Вы не можете редактировать свои сообщения
Вы не можете удалять свои сообщения
Вы не можете голосовать в опросах
Вы не можете прикреплять файлы к сообщениям
Вы не можете скачивать файлы