Чаплин, легенда столетия / Chaplin, la legende du siècle (Фредерик Мартен, Анн Лебульш / Frederic Martin, Anne Leboulch) [2014, Док. фильм, SATRip]


Статистика раздачи [Обновить пиров]
Размер:  696 MB   |    Зарегистрирован:  8 месяцев 20 дней   |    Скачан:  0 раз

Полного источника не было: Никогда

 
   
 
 
 

[Цитировать]

Чаплин, легенда столетия / Chaplin, la legende du siècle
Дата/Год выпуска: 2014
Страна: Франция
Жанр: Док. фильм
Продолжительность: 01:35:00
Перевод: Субтитры
Русские субтитры: есть
Формат субтитров: hardsub (неотключаемые)
Оригинальная аудиодорожка: английский
Режиссер: Фредерик Мартен, Анн Лебульш / Frederic Martin, Anne Leboulch
Описание: Новый полнометражный документальный фильм (в двух частях) о Чарли Чаплине, в котором использованы редкие архивные материалы. Обе части идут одним файлом.
Раздается англоязычная версия (Charlie Chaplin, Legend of a Century)
Русское название в данном переводе: Чарли Чаплин без грима
SATRip от : Твид
Доп. информация: Любезно предоставлено клубом Fenix
Сэмпл: http://multi-up.com/1015946
качество: SATRip
формат: AVI
Видео: XviD, 890 kb/s, 640x528, 25 fps, 0.105 bits/pixel
Аудио: 0x0055(MP3) ID'd as MPEG-1 Layer 3, 128 kb/s (2/ch, stereo) CBR, 48000 Hz - Английский

MediaInfo

Общее
Полное имя : D:\FILMS\Chaplin.SAT-rip.by.Твид.fenixclub.avi
Формат : AVI
Формат/Информация : Audio Video Interleave
Размер файла : 696 Мбайт
Продолжительность : 1 ч. 35 м.
Общий поток : 1024 Кбит/сек
Видео
Идентификатор : 0
Формат : MPEG-4 Visual
Профиль формата : Advanced Simple@L5
Параметр BVOP формата : 2
Параметр QPel формата : Нет
Параметр GMC формата : Без точки перехода
Параметр матрицы формата : Default (H.263)
Идентификатор кодека : XVID
Идентификатор кодека/Подсказка : XviD
Продолжительность : 1 ч. 35 м.
Битрейт : 886 Кбит/сек
Ширина : 640 пикселей
Высота : 528 пикселей
Соотношение сторон : 1,212
Частота кадров : 25,000 кадров/сек
Цветовое пространство : YUV
Субдискретизация насыщенности : 4:2:0
Битовая глубина : 8 бит
Тип развёртки : Прогрессивная
Метод сжатия : С потерями
Бит/(Пиксели*Кадры) : 0.105
Размер потока : 602 Мбайт (87%)
Библиотека кодирования : XviD 1.1.2 (UTC 2006-11-01)
Аудио
Идентификатор : 1
Формат : MPEG Audio
Версия формата : Version 1
Профиль формата : Layer 3
Режим : Joint stereo
Расширение режима : MS Stereo
Идентификатор кодека : 55
Идентификатор кодека/Подсказка : MP3
Продолжительность : 1 ч. 35 м.
Вид битрейта : Постоянный
Битрейт : 128 Кбит/сек
Каналы : 2 канала
Частота : 48,0 КГц
Метод сжатия : С потерями
Размер потока : 87,0 Мбайт (12%)
Выравнивание : Разделение по промежуткам
Продолжительность промежутка : 40 мс. (1,00 видеокадр)
Время предзагрузки промежутка : 500 мс.

Скриншоты

[teatrix.ru].t19564.torrent 
Торрент: Зарегистрирован [ 2016-03-18 12:42 ] · 7CDCCAF7D534288BE46A503D79EEA65F3FB47E78

Скачать .torrent

Скачать

14 KB

Статус: проверено
Скачан: 0 раз
Размер: 696 MB
terms.php



Быстрый ответ

Имя:

      
Для отправки сообщений необходимо включить JavaScript
Показать сообщения:    

Текущее время: 07-Дек 21:25

Часовой пояс: UTC + 3


Вы можете начинать темы
Вы можете отвечать на сообщения
Вы не можете редактировать свои сообщения
Вы не можете удалять свои сообщения
Вы не можете голосовать в опросах
Вы не можете прикреплять файлы к сообщениям
Вы можете скачивать файлы