(opera, vocal) Simone Kermes: La Diva - Handel Arias For Cuzzoni (Die Lautten Compagney Berlin - Wolfgang Katschner) - 2009, APE (image+.cue) lossless


 

[Цитировать]

Simone Kermes: La Diva - Handel Arias For Cuzzoni (Die Lautten Compagney Berlin - Wolfgang Katschner)
Жанр: opera, vocal
Страна-производитель диска: Germany
Год издания диска: 2009
Издатель (лейбл): Berlin Classics
Дата записи: 2-5 august 2008
Аудиокодек: APE
Тип рипа: image+.cue
Битрейт аудио: lossless
Продолжительность: 69'46"
Источник: собственный рип
Наличие сканов в содержимом раздачи: нет
Треклист:
1. Scoglio d'immota fronte
2. V'adoro pupille
3. Piangerò
4. Se pietà di me non senti
5. No, più soffrir non voglio
6. Ombre piante
7. Ahi perché, giusto ciel
8. Or mi perdo di speranza
9. Mi lagnerò tacendo
10. Torrente cresciuto
11. Fonti amiche
12. Amante stravagante
13. Morte vieni
14. Io ti bacio
Исполнители:
Simone Kermes
Die Lautten Compagney Berlin
Wolfgang Katschner

Лог создания рипа

Exact Audio Copy V1.0 beta 3 from 29. August 2011
EAC extraction logfile from 26. November 2014, 21:48
Simone Kermes / Simone Kermes - La Diva - Arias For Cuzzoni
Used drive : hp DVDRAM GT50N Adapter: 0 ID: 0
Read mode : Secure
Utilize accurate stream : Yes
Defeat audio cache : Yes
Make use of C2 pointers : No
Read offset correction : 103
Overread into Lead-In and Lead-Out : No
Fill up missing offset samples with silence : Yes
Delete leading and trailing silent blocks : No
Null samples used in CRC calculations : Yes
Used interface : Native Win32 interface for Win NT & 2000
Used output format : User Defined Encoder
Selected bitrate : 128 kBit/s
Quality : High
Add ID3 tag : No
Command line compressor : C:\Program Files\Exact Audio Copy\APE\MAC.exe
Additional command line options : %source% %dest% -c3000
TOC of the extracted CD
Track | Start | Length | Start sector | End sector
---------------------------------------------------------
1 | 0:00.00 | 5:03.49 | 0 | 22773
2 | 5:03.49 | 4:39.03 | 22774 | 43701
3 | 9:42.52 | 7:02.02 | 43702 | 75353
4 | 16:44.54 | 9:47.07 | 75354 | 119385
5 | 26:31.61 | 4:01.55 | 119386 | 137515
6 | 30:33.41 | 2:24.14 | 137516 | 148329
7 | 32:57.55 | 6:55.12 | 148330 | 179466
8 | 39:52.67 | 4:10.35 | 179467 | 198251
9 | 44:03.27 | 6:46.04 | 198252 | 228705
10 | 50:49.31 | 4:19.50 | 228706 | 248180
11 | 55:09.06 | 5:00.55 | 248181 | 270735
12 | 60:09.61 | 3:36.31 | 270736 | 286966
13 | 63:46.17 | 2:45.07 | 286967 | 299348
14 | 66:31.24 | 3:15.09 | 299349 | 313982
Range status and errors
Selected range
Filename D:\Temp\Simone Kermes - La Diva - Arias For Cuzzoni ape\Simone Kermes - La Diva - Arias For Cuzzoni.wav
Peak level 97.7 %
Extraction speed 4.4 X
Range quality 100.0 %
Test CRC 0A316A25
Copy CRC 0A316A25
Copy OK
No errors occurred
AccurateRip summary
Track 1 accurately ripped (confidence 15) [A8267CE4] (AR v2)
Track 2 accurately ripped (confidence 15) [5652503B] (AR v2)
Track 3 accurately ripped (confidence 15) [B95DD28D] (AR v2)
Track 4 accurately ripped (confidence 15) [BF50AC93] (AR v2)
Track 5 accurately ripped (confidence 15) [9B8DDBF5] (AR v2)
Track 6 accurately ripped (confidence 15) [889D20ED] (AR v2)
Track 7 accurately ripped (confidence 15) [2D851031] (AR v2)
Track 8 accurately ripped (confidence 15) [5119A877] (AR v2)
Track 9 accurately ripped (confidence 15) [E7B81B2C] (AR v2)
Track 10 accurately ripped (confidence 15) [A469EFC3] (AR v2)
Track 11 accurately ripped (confidence 15) [76BF47EE] (AR v2)
Track 12 accurately ripped (confidence 15) [84BB839B] (AR v2)
Track 13 accurately ripped (confidence 15) [40A89B15] (AR v2)
Track 14 accurately ripped (confidence 15) [68684E7E] (AR v2)
All tracks accurately ripped
End of status report
==== Log checksum 2FB1D1883282B7B4F40B4FCC986FF0B51589F8BF11B7ABE35AF65AB90BF99C42 ====

Содержание индексной карты (.CUE)

REM GENRE Opera
REM DATE 2009
REM DISCID CB105A0E
REM COMMENT "ExactAudioCopy v1.0b3"
PERFORMER "Simone Kermes"
TITLE "Simone Kermes - La Diva - Arias For Cuzzoni"
FILE "Simone Kermes - La Diva - Arias For Cuzzoni.ape" WAVE
TRACK 01 AUDIO
TITLE "Scoglio d'immota fronte"
PERFORMER "Simone Kermes"
INDEX 01 00:00:00
TRACK 02 AUDIO
TITLE "V'adoro, pupille"
PERFORMER "Simone Kermes"
INDEX 01 05:03:49
TRACK 03 AUDIO
TITLE "Piangero la sorte mia"
PERFORMER "Simone Kermes"
INDEX 01 09:42:52
TRACK 04 AUDIO
TITLE "Se pieta di me non senti"
PERFORMER "Simone Kermes"
INDEX 01 16:44:54
TRACK 05 AUDIO
TITLE "No, piu soffrir non voglio"
PERFORMER "Simone Kermes"
INDEX 01 26:31:61
TRACK 06 AUDIO
TITLE "Ombre piante urne funeste"
PERFORMER "Simone Kermes"
INDEX 01 30:33:41
TRACK 07 AUDIO
TITLE "Ahi perche, giusto ciel"
PERFORMER "Simone Kermes"
INDEX 01 32:57:55
TRACK 08 AUDIO
TITLE "Or mi perdo di speranza"
PERFORMER "Simone Kermes"
INDEX 01 39:52:67
TRACK 09 AUDIO
TITLE "Mi lagnero tacendo del mio destino avaro"
PERFORMER "Simone Kermes"
INDEX 01 44:03:27
TRACK 10 AUDIO
TITLE "Torrente cresciuto per torbida piena"
PERFORMER "Simone Kermes"
INDEX 01 50:49:31
TRACK 11 AUDIO
TITLE "Fonti amiche, aure leggiere"
PERFORMER "Simone Kermes"
INDEX 01 55:09:06
TRACK 12 AUDIO
TITLE "Amante stravagante"
PERFORMER "Simone Kermes"
INDEX 01 60:09:61
TRACK 13 AUDIO
TITLE "Morte vieni"
PERFORMER "Simone Kermes"
INDEX 01 63:46:17
TRACK 14 AUDIO
TITLE "Io ti bacio, o bella imago"
PERFORMER "Simone Kermes"
INDEX 01 66:31:24



Показать сообщения:    

Текущее время: 03-Дек 07:41

Часовой пояс: UTC + 3


Вы не можете начинать темы
Вы не можете отвечать на сообщения
Вы не можете редактировать свои сообщения
Вы не можете удалять свои сообщения
Вы не можете голосовать в опросах
Вы не можете прикреплять файлы к сообщениям
Вы не можете скачивать файлы