(Opera) Krenek - Sardakai (Lucic, Junghanns, Durmuller, Deubner, Entling - Berlin Radio Symphony Orchestra, Schmiedel) - 2006, APE (image+.cue) lossless


 

[Цитировать]

Ernst Krenek (1900-1991) - Sardakai, Op. 206
Жанр: Opera
Страна-производитель диска: Germany
Год издания диска: 2006
Издатель (лейбл): Capriccio
Номер по каталогу: 60 129
Дата записи: 2000
Аудиокодек: APE
Тип рипа: image+.cue
Битрейт аудио: lossless
Продолжительность: 52'54+48'00
Источник: собственный рип
Наличие сканов в содержимом раздачи: да
Треклист:

CD1

1. Act I Scene 1: Ich bin Sardakai
2. Act I: First Zwischenmusik
3. Act I Scene 2: Lass uns hier sitzen, Carlo
4. Act I: Second Zwischenmusik
5. Act I Scene 3: Ich hatte es nicht fur moglich gehalten
6. Act I: Third Zwischenmusik
7. Act I Scene 4: Ich muss Ihnen erklaren
8. Act I: Fourth Zwischenmusik
9. Act I Scene 5: Leidenschaft treibt zum Wahnsinn

CD2

1. Act II Scene 6: Oh du allein poetischer Freund …
2. Act II: Fifth Zwischenmusik
3. Act II Scene 7: Ein merkwurdiges Zusammentreffen
4. Act II Scene 8: Mrs. Wilson, I presume
5. Act II: Sixth Zwischenmusik
6. Act II Scene 9: Oh Adriano, du machst mich meine Mission vergessen
7. Act II: Seventh Zwischenmusik
8. Act II Scene 10: Ein wenig vereinsamt sitz' ich jetzt
9. Act II Scene 11: Als Mrs. Wilson bin ich eingezogen
Исполнители:
Ernst Krenek (1900-1991) - Sardakai, Op. 206
Opera in 2 Acts
Libretto: Ernst Krenek
Ksenija Lucic, soprano
Egbert Junghanns, bass
Markus Köhler, baritone
Cornelia Entling, mezzo-soprano
Jorg Dürmüller, tenor
Maacha Deubner, soprano
Berlin Radio Symphony Orchestra
Reinhard Schmiedel, Conductor

Лог создания рипа

CD1

Exact Audio Copy V1.0 beta 3 from 29. August 2011
EAC extraction logfile from 9. November 2014, 19:35
Krenek / Sardakai, Schmiedel CD1
Used drive : TS8XDVDSTRANSCEND Adapter: 1 ID: 1
Read mode : Secure
Utilize accurate stream : Yes
Defeat audio cache : Yes
Make use of C2 pointers : No
Read offset correction : 6
Overread into Lead-In and Lead-Out : No
Fill up missing offset samples with silence : Yes
Delete leading and trailing silent blocks : No
Null samples used in CRC calculations : Yes
Used interface : Native Win32 interface for Win NT & 2000
Used output format : Monkey's Audio Lossless Encoder
Selected bitrate : High Lossless Compression
Quality : High
Add ID3 tag : Yes
Command line compressor : C:\Program Files (x86)\Exact Audio Copy\MAC\MAC.exe
TOC of the extracted CD
Track | Start | Length | Start sector | End sector
---------------------------------------------------------
1 | 0:00.00 | 6:58.16 | 0 | 31365
2 | 6:58.16 | 1:15.32 | 31366 | 37022
3 | 8:13.48 | 12:18.60 | 37023 | 92432
4 | 20:32.33 | 1:24.11 | 92433 | 98743
5 | 21:56.44 | 12:02.66 | 98744 | 152959
6 | 33:59.35 | 1:08.69 | 152960 | 158128
7 | 35:08.29 | 4:13.67 | 158129 | 177170
8 | 39:22.21 | 1:26.03 | 177171 | 183623
9 | 40:48.24 | 12:04.04 | 183624 | 237927
Range status and errors
Selected range
Filename D:\EAC\Krenek - Sardakai, Schmiedel CD1.wav
Peak level 95.0 %
Extraction speed 1.8 X
Range quality 100.0 %
Test CRC FE6F1E13
Copy CRC FE6F1E13
Copy OK
No errors occurred
AccurateRip summary
Track 1 accurately ripped (confidence 2) [9D7F785B] (AR v1)
Track 2 accurately ripped (confidence 2) [1C600312] (AR v1)
Track 3 accurately ripped (confidence 2) [A7B8D909] (AR v1)
Track 4 accurately ripped (confidence 2) [B38A899B] (AR v1)
Track 5 accurately ripped (confidence 2) [A4E105BB] (AR v1)
Track 6 accurately ripped (confidence 2) [AAA3182D] (AR v1)
Track 7 accurately ripped (confidence 2) [A205FA41] (AR v1)
Track 8 accurately ripped (confidence 2) [A5230BAC] (AR v1)
Track 9 accurately ripped (confidence 2) [5A8B2FC3] (AR v1)
All tracks accurately ripped
End of status report
---- CUETools DB Plugin V2.1.3
[CTDB TOCID: HRZxlwNgHNGDjN6zi60XZSoMAM0-] disk not present in database, Submit result: unrecognized or virtual drive
==== Log checksum A5324A7D6A0F9BAD4E6660D6529031410487E810227F60A9C56A6E3DE2685D4A ====

CD2

Exact Audio Copy V1.0 beta 3 from 29. August 2011
EAC extraction logfile from 9. November 2014, 19:27
Krenek / Sardakai, Schmiedel CD2
Used drive : TSSTcorpCDDVDW SE-208AB Adapter: 1 ID: 0
Read mode : Secure
Utilize accurate stream : Yes
Defeat audio cache : Yes
Make use of C2 pointers : No
Read offset correction : 6
Overread into Lead-In and Lead-Out : No
Fill up missing offset samples with silence : Yes
Delete leading and trailing silent blocks : No
Null samples used in CRC calculations : Yes
Used interface : Native Win32 interface for Win NT & 2000
Used output format : Monkey's Audio Lossless Encoder
Selected bitrate : High Lossless Compression
Quality : High
Add ID3 tag : Yes
Command line compressor : C:\Program Files (x86)\Exact Audio Copy\MAC\MAC.exe
TOC of the extracted CD
Track | Start | Length | Start sector | End sector
---------------------------------------------------------
1 | 0:00.00 | 2:37.45 | 0 | 11819
2 | 2:37.45 | 1:18.26 | 11820 | 17695
3 | 3:55.71 | 11:25.40 | 17696 | 69110
4 | 15:21.36 | 9:10.61 | 69111 | 110421
5 | 24:32.22 | 0:39.30 | 110422 | 113376
6 | 25:11.52 | 5:09.65 | 113377 | 136616
7 | 30:21.42 | 1:34.70 | 136617 | 143736
8 | 31:56.37 | 10:13.14 | 143737 | 189725
9 | 42:09.51 | 5:49.01 | 189726 | 215901
Range status and errors
Selected range
Filename D:\EAC\Krenek - Sardakai, Schmiedel CD2.wav
Peak level 94.5 %
Extraction speed 1.7 X
Range quality 100.0 %
Test CRC 90DED2FA
Copy CRC 90DED2FA
Copy OK
No errors occurred
AccurateRip summary
Track 1 accurately ripped (confidence 2) [647430B9] (AR v1)
Track 2 accurately ripped (confidence 2) [CBE12E1C] (AR v1)
Track 3 accurately ripped (confidence 2) [6149FE81] (AR v1)
Track 4 accurately ripped (confidence 2) [D4444475] (AR v1)
Track 5 accurately ripped (confidence 2) [E091C605] (AR v1)
Track 6 accurately ripped (confidence 2) [7804F532] (AR v1)
Track 7 accurately ripped (confidence 2) [4A6756BD] (AR v1)
Track 8 accurately ripped (confidence 2) [CF7808E7] (AR v1)
Track 9 accurately ripped (confidence 2) [7F69E25F] (AR v1)
All tracks accurately ripped
End of status report
---- CUETools DB Plugin V2.1.3
[CTDB TOCID: PFKe3nCDETAh9UNWMfz0fdMJbnc-] disk not present in database, Submit result: PFKe3nCDETAh9UNWMfz0fdMJbnc- has been uploaded
==== Log checksum 19609B153EEF65AB93C64F6D52BDC17F1785DB08E37EC58B8A770E36CDA3A67B ====

Содержание индексной карты (.CUE)

CD1

REM GENRE Opera
REM DATE 2006
REM DISCID 560C6409
REM COMMENT "ExactAudioCopy v1.0b3"
PERFORMER "Krenek"
TITLE "Sardakai, Schmiedel CD1"
FILE "Krenek - Sardakai, Schmiedel CD1.ape" WAVE
TRACK 01 AUDIO
TITLE "Act I, Scene 1 - Ich bin Sardakai"
PERFORMER "Krenek"
ISRC DEB260600198
INDEX 01 00:00:00
TRACK 02 AUDIO
TITLE "Act I - Erste Zwischenmusik"
PERFORMER "Krenek"
ISRC DEB260600199
INDEX 01 06:58:16
TRACK 03 AUDIO
TITLE "Act I, Scene 2 - Lass uns hier sitzen, Carlo"
PERFORMER "Krenek"
ISRC DEB260600200
INDEX 01 08:13:48
TRACK 04 AUDIO
TITLE "Act I - Zweite Zwischenmusik"
PERFORMER "Krenek"
ISRC DEB260600200
INDEX 01 20:32:33
TRACK 05 AUDIO
TITLE "Act I, Scene 3 - Ich hätte es nicht für möglich gehalten"
PERFORMER "Krenek"
ISRC DEB260600201
INDEX 01 21:56:44
TRACK 06 AUDIO
TITLE "Act I - Dritte Zwischenmusik"
PERFORMER "Krenek"
ISRC DEB260600202
INDEX 01 33:59:35
TRACK 07 AUDIO
TITLE "Act I, Scene 4 - Ich muss Ihnen erklären"
PERFORMER "Krenek"
ISRC DEB260600204
INDEX 01 35:08:29
TRACK 08 AUDIO
TITLE "Act I - Vierte Zwischenmusik"
PERFORMER "Krenek"
ISRC DEB260600205
INDEX 01 39:22:21
TRACK 09 AUDIO
TITLE "Act I, Scene 5 - Leidenschaft treibt zum Wahnsinn"
PERFORMER "Krenek"
ISRC DEB260600206
INDEX 01 40:48:24

CD2

REM GENRE Opera
REM DATE 2006
REM DISCID 710B3E09
REM COMMENT "ExactAudioCopy v1.0b3"
PERFORMER "Krenek"
TITLE "Sardakai, Schmiedel CD2"
FILE "Krenek - Sardakai, Schmiedel CD2.ape" WAVE
TRACK 01 AUDIO
TITLE "Act, II, Scene 6 - Oh - du allein - Poetischer Freund"
PERFORMER "Krenek"
ISRC DEB260600207
INDEX 01 00:00:00
TRACK 02 AUDIO
TITLE "Act II - Fünfte Zwischenmusik"
PERFORMER "Krenek"
ISRC DEB260600208
INDEX 01 02:37:45
TRACK 03 AUDIO
TITLE "Act, II, Scene 7 - Ein merkwürdiges Zusammentreffen"
PERFORMER "Krenek"
ISRC DEB260600209
INDEX 01 03:55:71
TRACK 04 AUDIO
TITLE "Act, II, Scene 8 - Mrs. Wilson, I presume?"
PERFORMER "Krenek"
ISRC DEB260600210
INDEX 01 15:21:36
TRACK 05 AUDIO
TITLE "Act II - Sechste Zwischenmusik"
PERFORMER "Krenek"
ISRC DEB260600210
INDEX 01 24:32:22
TRACK 06 AUDIO
TITLE "Act, II, Scene 9 - Oh Adriano, du machst mich meine Mission vergessen"
PERFORMER "Krenek"
ISRC DEB260600212
INDEX 01 25:11:52
TRACK 07 AUDIO
TITLE "Act II - Siebte Zwischenmusik"
PERFORMER "Krenek"
ISRC DEB260600213
INDEX 01 30:21:42
TRACK 08 AUDIO
TITLE "Act, II, Scene 10 - Ein wenig verainsamt sitz' ich jetzt"
PERFORMER "Krenek"
ISRC DEB260600214
INDEX 01 31:56:37
TRACK 09 AUDIO
TITLE "Act, II, Scene 11 - Als Mrs. Wilson bin ich eingezogen"
PERFORMER "Krenek"
ISRC DEB260600215
INDEX 01 42:09:51



Показать сообщения:    

Текущее время: 05-Дек 05:29

Часовой пояс: UTC + 3


Вы не можете начинать темы
Вы не можете отвечать на сообщения
Вы не можете редактировать свои сообщения
Вы не можете удалять свои сообщения
Вы не можете голосовать в опросах
Вы не можете прикреплять файлы к сообщениям
Вы не можете скачивать файлы