Раскольников (Владимир Уваров) [2007 г., драма, WEB-DLRip] Санкт-Петербургский Православный драматический театр "Странник"


 

[Цитировать]

Раскольников Название театра: Санкт-Петербургский Православный драматический театр "Странник".
Год выпуска: 2007.
Жанр: драма.
Продолжительность: 01:50:15.
Режиссер: Владимир Уваров.
Действующие лица и исполнители:
Соня Мармеладова - Елена Станчиц,
Родион Раскольников - Александр Чередник,
Мармеладов - Евгений Покрамович,
Мужичок в распивочной - Михаил Метёлкин.
О спектакле:
По роману Ф. М. Достоевского "Преступление и наказание".
За основу спектакля взята линия взаимоотношений Родиона Раскольникова и Сони Мармеладовой.

Дополнительная информация:
Страна: Россия .
Спектакль - лауреат I-го Пасхального театрального фестиваля в Санкт-Петербурге, 2007 г., дипломант XI-го Международного фестиваля камерных спектаклей по произведениям Ф.М.Достоевского в Старой Руссе, 2007 г (председатель жюри - нар.арт. России Георгий Тараторкин).
Автор: Федор Михайлович Достоевский.
Инсценировка и постановка: Владимир Уваров.
Сценография и костюмы: Елена Логинова.
Музыкальное оформление: Антон Медведский.
Музыканты:
.......альт: Ирина савельева.
.......фортепиано: Антон Медведский.
Пение: Лидия Бутко, Мария Томашевская, Вероника Бабичук.
Художественный руководитель театра: Владимир Уваров.

О спектакле.
Релиз
Рип sharky.

Качество видео:...WEB-DLRip
Формат:.................AVI
Видео:..704x528 (1.33:1), 25 fps, XviD build 47 ~1648 kbps avg, 0.18 bit/pixel
Аудио:..48 kHz, AC3 Dolby Digital, 2/0 (L,R) ch, ~192 kbps

Отчет MI

Общее
Полное имя : Rasol'nikov_Sank-Peterburgskij.Pravoslavnyj.DT.Strannik.2007.XviD.WEB-DLRip.fenixclub.avi
Format : AVI
Format/Info : Audio Video Interleave
File size : 1.42 GiB
Duration : 1h 50mn
Overall bit rate : 1 850 Kbps
Writing application : VirtualDubMod 1.5.10.2 (build 2540/release)
Writing library : VirtualDubMod build 2540/release
Video
ID : 0
Format : MPEG-4 Visual
Format profile : Advanced Simple@L5
Format settings, BVOP : 1
Format settings, QPel : No
Format settings, GMC : No warppoints
Format settings, Matrix : Default (H.263)
Codec ID : XVID
Codec ID/Hint : XviD
Duration : 1h 50mn
Bit rate : 1 649 Kbps
Width : 704 pixels
Height : 528 pixels
Display aspect ratio : 4:3
Frame rate : 25.000 fps
Color space : YUV
Chroma subsampling : 4:2:0
Bit depth : 8 bits
Scan type : Progressive
Compression mode : Lossy
Bits/(Pixel*Frame) : 0.177
Stream size : 1.27 GiB (89%)
Writing library : XviD 1.2.0.dev47 (UTC 2006-11-01)
Audio
ID : 1
Format : AC-3
Format/Info : Audio Coding 3
Mode extension : CM (complete main)
Format settings, Endianness : Big
Codec ID : 2000
Duration : 1h 50mn
Bit rate mode : Constant
Bit rate : 192 Kbps
Channel(s) : 2 channels
Channel positions : Front: L R
Sampling rate : 48.0 KHz
Bit depth : 16 bits
Compression mode : Lossy
Stream size : 151 MiB (10%)
Alignment : Split accross interleaves
Interleave, duration : 40 ms (1.00 video frame)
Interleave, preload duration : 500 ms.

Скриншоты


Альтернативный хост





Показать сообщения:    

Текущее время: 20-Янв 15:00

Часовой пояс: UTC + 3


Вы не можете начинать темы
Вы не можете отвечать на сообщения
Вы не можете редактировать свои сообщения
Вы не можете удалять свои сообщения
Вы не можете голосовать в опросах
Вы не можете прикреплять файлы к сообщениям
Вы не можете скачивать файлы