(Classical) Gustav Mahler: Symphony No.2 in C Minor 'Resurrection' (Natalie Dessay, Alice Coote, Orfeon Donostiarra, Paavo Jarvi) - 2010, FLAC (tracks+.cue) lossless


 

[Цитировать]

Gustav Mahler: Symphony No.2 in C Minor 'Resurrection' (Natalie Dessay, Alice Coote, Orfeon Donostiarra, Paavo Järvi)
Жанр: Classical
Год издания диска: 2010
Аудиокодек: FLAC
Тип рипа: tracks+.cue
Битрейт аудио: lossless
Продолжительность: 85 минут
Источник: собственный рип
Треклист:
Gustav Mahler: Symphony No.2 in C Minor 'Resurrection'
I. Allegro
II. Andante moderato
III. In ruhig fließender Bewegung
IV. Urlicht. Sehr feierlich, aber schlicht
V. Finale. Im Tempo des Scherzos
Исполнители:
Natalie Dessay (soprano) & Alice Coote (mezzo soprano) & Orféon Donostarria.
Frankfurt Radio Symphony Orchestra
Paavo Järvi

Лог создания рипа

==CD1==
X Lossless Decoder version 20141129 (148.1)
XLD extraction logfile from 2014-12-01 00:14:42 +0500
Paavo Järvi: Frankfurt Radio Symphony Orchestra / Mahler: Symphonie Nr.2 c-moll "Auferstehung":Järvi [Disc 1]
Used drive : ASUS SBW-06D2X-U (revision D501)
Media type : Pressed CD
Ripper mode : XLD Secure Ripper
Disable audio cache : OK for the drive with a cache less than 1375KiB
Make use of C2 pointers : NO
Read offset correction : 103
Max retry count : 20
Gap status : Analyzed, Appended (except HTOA)
TOC of the extracted CD
Track | Start | Length | Start sector | End sector
---------------------------------------------------------
1 | 00:00:00 | 23:19:70 | 0 | 104994
2 | 25:51:70 | 06:38:40 | 116395 | 146284
AccurateRip Summary (DiscID: 00023b6d-000476db-10079e02)
Track 01 : OK (v1+v2, confidence 38/38)
->All tracks accurately ripped.
All Tracks
Statistics
Read error : 0
Jitter error (maybe fixed) : 0
Retry sector count : 0
Damaged sector count : 0
Track 01
Filename : /Volumes/Andy HD2/XLD/Mahler - Symphonie Nr.2 c-moll "Auferstehung" [Paavo Jarvi]/CD1/01.01 Symphony No.2 In C Minor "Auferstehungs-Symphonie" - 1. Allegro Maestoso . Mit Durchaus Ernstem Und Feierlichem Susdruck.flac
Pre-gap length : 00:02:00
CRC32 hash : 4B9074CB
CRC32 hash (skip zero) : D8778F8F
AccurateRip v1 signature : 287F97E9
AccurateRip v2 signature : 9A714F96
->Accurately ripped (v1+v2, confidence 14+24/38)
Statistics
Read error : 0
Jitter error (maybe fixed) : 0
Retry sector count : 0
Damaged sector count : 0
No errors occurred
End of status report
==CD2==
X Lossless Decoder version 20141129 (148.1)
XLD extraction logfile from 2014-12-01 00:23:09 +0500
Paavo Järvi: Frankfurt Radio Symphony Orchestra / Mahler: Symphonie Nr.2 c-moll "Auferstehung" [Disc 2]
Used drive : ASUS SBW-06D2X-U (revision D501)
Media type : Pressed CD
Ripper mode : XLD Secure Ripper
Disable audio cache : OK for the drive with a cache less than 1375KiB
Make use of C2 pointers : NO
Read offset correction : 103
Max retry count : 20
Gap status : Analyzed, Appended (except HTOA)
TOC of the extracted CD
Track | Start | Length | Start sector | End sector
---------------------------------------------------------
1 | 00:00:00 | 10:07:72 | 0 | 45596
2 | 10:07:72 | 10:50:26 | 45597 | 94372
3 | 20:58:23 | 05:34:39 | 94373 | 119461
4 | 26:32:62 | 35:23:00 | 119462 | 278686
List of alternate offset correction values
# | Absolute | Relative | Confidence
------------------------------------------
1 | 78 | -25 | 2
AccurateRip Summary (DiscID: 00083607-002243dd-2d0e8304)
Track 01 : OK (v1+v2, confidence 36/38)
Track 02 : OK (v1+v2, confidence 36/38)
Track 03 : OK (v1+v2, confidence 36/38)
Track 04 : OK (v1+v2, confidence 34/36)
->All tracks accurately ripped.
All Tracks
Statistics
Read error : 0
Jitter error (maybe fixed) : 0
Retry sector count : 0
Damaged sector count : 0
Track 01
Filename : /Volumes/Andy HD2/XLD/Mahler - Symphonie Nr.2 c-moll "Auferstehung" [Paavo Jarvi]/CD2/02.01 Mahler. Symphony #2 - 2. Andante Moderato.flac
Pre-gap length : 00:02:00
CRC32 hash : E8782AB9
CRC32 hash (skip zero) : 666FA6DF
AccurateRip v1 signature : EBC2DF70
AccurateRip v2 signature : BADCAAA2
->Accurately ripped (v1+v2, confidence 13+23/38)
Statistics
Read error : 0
Jitter error (maybe fixed) : 0
Retry sector count : 0
Damaged sector count : 0
Track 02
Filename : /Volumes/Andy HD2/XLD/Mahler - Symphonie Nr.2 c-moll "Auferstehung" [Paavo Jarvi]/CD2/02.02 Mahler. Symphony #2 - 3. In Ruhig Fliessender Bewegung.flac
CRC32 hash : 9223010D
CRC32 hash (skip zero) : 33928F30
AccurateRip v1 signature : 4B18F752
AccurateRip v2 signature : 4BB4E908
->Accurately ripped (v1+v2, confidence 13+23/38)
Statistics
Read error : 0
Jitter error (maybe fixed) : 0
Retry sector count : 0
Damaged sector count : 0
Track 03
Filename : /Volumes/Andy HD2/XLD/Mahler - Symphonie Nr.2 c-moll "Auferstehung" [Paavo Jarvi]/CD2/02.03 Mahler. Symphony #2 - 4. Urlicht.flac
CRC32 hash : 3692C851
CRC32 hash (skip zero) : CB2C680B
AccurateRip v1 signature : 49D4F427
AccurateRip v2 signature : AC34D109
->Accurately ripped (v1+v2, confidence 13+23/38)
Statistics
Read error : 0
Jitter error (maybe fixed) : 0
Retry sector count : 0
Damaged sector count : 0
Track 04
Filename : /Volumes/Andy HD2/XLD/Mahler - Symphonie Nr.2 c-moll "Auferstehung" [Paavo Jarvi]/CD2/02.04 Mahler. Symphony #2 - 5. Im Tempo Des Scherzos.flac
CRC32 hash : 4F08BB4E
CRC32 hash (skip zero) : 3455A8A0
AccurateRip v1 signature : BFBF4306
AccurateRip v2 signature : F8AC0903
->Accurately ripped (v1+v2, confidence 11+23/36)
Statistics
Read error : 0
Jitter error (maybe fixed) : 0
Retry sector count : 0
Damaged sector count : 0
No errors occurred
End of status report

Содержание индексной карты (.CUE) #CD1

TITLE "Mahler: Symphonie Nr.2 c-moll "Auferstehung":Järvi [Disc 1]"
PERFORMER "Paavo Järvi: Frankfurt Radio Symphony Orchestra"
CATALOG 5099960784100
REM GENRE "Classical"
REM DATE "2009"
REM DISCNUMBER 1
REM TOTALDISCS 2
REM DISCID 10079E02
FILE "01.01 Symphony No.2 In C Minor "Auferstehungs-Symphonie" - 1. Allegro Maestoso . Mit Durchaus Ernstem Und Feierlichem Susdruck.flac" WAVE
TRACK 01 AUDIO
TITLE "Symphony No.2 In C Minor "Auferstehungs-Symphonie" - 1. Allegro Maestoso : Mit Durchaus Ernstem Und Feierlichem Susdruck"
PERFORMER "Paavo Järvi: Frankfurt Radio Symphony Orchestra"
SONGWRITER "Mahler"
ISRC GBAYC0903178
FLAGS DCP
INDEX 01 00:00:00

Содержание индексной карты (.CUE) #CD2

TITLE "Mahler: Symphonie Nr.2 c-moll "Auferstehung" [Disc 2]"
PERFORMER "Paavo Järvi: Frankfurt Radio Symphony Orchestra"
CATALOG 5099969458620
REM GENRE "Classical"
REM DATE "2009"
REM DISCNUMBER 2
REM TOTALDISCS 2
REM DISCID 2D0E8304
REM COMPILATION TRUE
FILE "02.01 Mahler. Symphony #2 - 2. Andante Moderato.flac" WAVE
TRACK 01 AUDIO
TITLE "Mahler: Symphony #2 - 2. Andante Moderato"
PERFORMER "Alice Coote, Natalie Dessay, Etc. Paavo Järvi: Frankfurt Radio Symphony Orchestra, Orfeón Donostiarra"
SONGWRITER "Gustav Mahler"
ISRC GBAYC0903179
INDEX 01 00:00:00
FILE "02.02 Mahler. Symphony #2 - 3. In Ruhig Fliessender Bewegung.flac" WAVE
TRACK 02 AUDIO
TITLE "Mahler: Symphony #2 - 3. In Ruhig Fliessender Bewegung"
PERFORMER "Alice Coote, Natalie Dessay, Etc. Paavo Järvi: Frankfurt Radio Symphony Orchestra, Orfeón Donostiarra"
SONGWRITER "Gustav Mahler"
ISRC GBAYC0903180
INDEX 01 00:00:00
FILE "02.03 Mahler. Symphony #2 - 4. Urlicht.flac" WAVE
TRACK 03 AUDIO
TITLE "Mahler: Symphony #2 - 4. Urlicht"
PERFORMER "Alice Coote, Natalie Dessay, Etc. Paavo Järvi: Frankfurt Radio Symphony Orchestra, Orfeón Donostiarra"
SONGWRITER "Gustav Mahler"
ISRC GBAYC0903181
INDEX 01 00:00:00
FILE "02.04 Mahler. Symphony #2 - 5. Im Tempo Des Scherzos.flac" WAVE
TRACK 04 AUDIO
TITLE "Mahler: Symphony #2 - 5. Im Tempo Des Scherzos"
PERFORMER "Alice Coote, Natalie Dessay, Etc. Paavo Järvi: Frankfurt Radio Symphony Orchestra, Orfeón Donostiarra"
SONGWRITER "Gustav Mahler"
ISRC GBAYC0903182
INDEX 01 00:00:00



Показать сообщения:    

Текущее время: 03-Дек 03:23

Часовой пояс: UTC + 3


Вы не можете начинать темы
Вы не можете отвечать на сообщения
Вы не можете редактировать свои сообщения
Вы не можете удалять свои сообщения
Вы не можете голосовать в опросах
Вы не можете прикреплять файлы к сообщениям
Вы не можете скачивать файлы