Мой бедный Марат (Александр Загораев) [2010 г., реквием по мечте, WEB-DLRip] Прокопьевский драматический театр им. Ленинского комсомола


 

[Цитировать]

Мой бедный Марат Название театра: Государственное автономное учреждение культуры "Прокопьевский драматический театр им. Ленинского комсомола".
Год выпуска: 2010.
Жанр: реквием по мечте.
Продолжительность: 02:21:04.
Режиссер: Александр Загораев (Москва).
Действующие лица и исполнители:
Марат - Георгий Болонев,
Леонидик - Роман Михайлов,
Лика - Татьяна Федоренко.
О спектакле:
По пьесе Алексея Арбузова.
Весна 42-го года. Блокадный Ленинград. В квартире полуразрушенного дома пытаются выжить трое подростков, потерявших близких – Лика, Марат и Леонидик. Позднее война их разбросала. Марат и Леонидик уходят на фронт, Лика остаётся в Ленинграде. После Победы они встречаются вновь всё в той же квартире. Кажется, всё худшее уже позади. Но что-то мешает вчерашним детям обрести счастье...

Дополнительная информация:
Страна: Россия .
Выпущено: © ТРК "27 плюс".
Автор: Алексей Арбузов.
Художник-постановщик: Елена Сенатова (Москва).
Директор театра: заслуженный работник культуры России Людмила Купцова.

Релиз
Рип sharky.

Качество видео:...WEB-DLRip
Формат:.................AVI
Видео:..704x528 (1.33:1), 25 fps, XviD build 50 ~1272 kbps avg, 0.14 bit/pixel
Аудио:..48 kHz, AC3 Dolby Digital, 2/0 (L,R) ch, ~192 kbps

Отчет MI

Общее
Полное имя : Moj.bednyj.Marat_Prokop'evskij.DT.im.Len.komsomola.2010.XviD.WEB-DLRip.fenixclub.avi
Format : AVI
Format/Info : Audio Video Interleave
File size : 1.45 GiB
Duration : 2h 21mn
Overall bit rate : 1 475 Kbps
Writing application : VirtualDubMod 1.5.10.3 | www.virtualdub-fr.org || (build 2550/release)
Writing library : VirtualDubMod build 2550/release
Video
ID : 0
Format : MPEG-4 Visual
Format profile : Advanced Simple@L5
Format settings, BVOP : 1
Format settings, QPel : No
Format settings, GMC : No warppoints
Format settings, Matrix : Default (H.263)
Codec ID : XVID
Codec ID/Hint : XviD
Duration : 2h 21mn
Bit rate : 1 273 Kbps
Width : 704 pixels
Height : 528 pixels
Display aspect ratio : 4:3
Frame rate : 25.000 fps
Color space : YUV
Chroma subsampling : 4:2:0
Bit depth : 8 bits
Scan type : Progressive
Compression mode : Lossy
Bits/(Pixel*Frame) : 0.137
Stream size : 1.25 GiB (86%)
Writing library : XviD 1.2.1 (UTC 2008-12-04)
Audio
ID : 1
Format : AC-3
Format/Info : Audio Coding 3
Mode extension : CM (complete main)
Format settings, Endianness : Big
Codec ID : 2000
Duration : 2h 21mn
Bit rate mode : Constant
Bit rate : 192 Kbps
Channel(s) : 2 channels
Channel positions : Front: L R
Sampling rate : 48.0 KHz
Bit depth : 16 bits
Compression mode : Lossy
Stream size : 194 MiB (13%)
Alignment : Split accross interleaves
Interleave, duration : 40 ms (1.00 video frame)
Interleave, preload duration : 500 ms.

Скриншоты


Альтернативный хост





Показать сообщения:    

Текущее время: 03-Дек 07:39

Часовой пояс: UTC + 3


Вы не можете начинать темы
Вы не можете отвечать на сообщения
Вы не можете редактировать свои сообщения
Вы не можете удалять свои сообщения
Вы не можете голосовать в опросах
Вы не можете прикреплять файлы к сообщениям
Вы не можете скачивать файлы