Жан Маре о Жане Маре / Jean Marais par Jean Marais (Жан-Кристоф Розе / Jean-Christophe Rose, Кароль Вайсвайллер / Carole Weisweiller) [1995, документальный, биографический, DVB] VO (ИГМАР)


Статистика раздачи [Обновить пиров]
Размер:  1.6 GB   |    Зарегистрирован:  8 месяцев 22 дня   |    Скачан:  0 раз

Полного источника не было: Никогда

 
   
 
 
 

[Цитировать]

Жан Маре о Жане Маре
Jean Marais par Jean Marais- Дата/Год выпуска: 1995
Страна: Франция
Жанр: документальный, биографический
Продолжительность: 01:05:21
Перевод: Студийный (одноголосый закадровый)
Доп. инфо о переводе: Компания "ИГМАР"
Русские субтитры: нетРежиссер: Жан-Кристоф Розе / Jean-Christophe Rosé, Кароль Вайсвайллер / Carole Weisweiller
Телеканал: Время: далекое и близкое
Описание: "Я - лентяй, и никогда этого от себя не скрывал. Все, что меня не забавляет, кажется мне смертельно скучным, а игра, насколько мне известно, не требует особых усилий - поэтому я всегда играл. Я играю в театре, в кино точно так же, как я играю, когда рисую, пишу картины, леплю, занимаюсь постановкой спектаклей, создаю декорации. Я играю до изнеможения то в актера, то в гончара. Я играю сам с собой, против самого себя, будучи одновременно ребенком, взрослым, стариком..." (Жан Маре)
Доп. информация: DVB-S

качество: DVB
формат: MKV
Видео: MPEG Video 2, 720x576@768x576 (4:3), 25 fps, ~3251 kbps avg, 0.314 bit/pixel
Аудио: MPEG Audio 2, 2 ch, 48 kHz, ~192.00 kbps avg

MediaInfo

Общее
Уникальный идентификатор : 207554208254525429772539353242190935787 (0x9C257C89B2910499A7AAC4EEC1EEF6EB)
Полное имя : E:\My Torrents 2\[apreder]Jean_Marais_par_Jean_Marais(1995)DVB.mkv
Формат : Matroska
Версия формата : Version 2
Размер файла : 1,60 Гбайт
Продолжительность : 1 ч. 5 м.
Режим общего битрейта : Переменный
Общий поток : 3512 Кбит/сек
Дата кодирования : UTC 2014-12-01 16:48:09
Программа кодирования : mkvmerge v7.3.0 ('Nouages') 64bit built on Oct 22 2014 18:53:34
Библиотека кодирования : libebml v1.3.0 + libmatroska v1.4.1
Видео
Идентификатор : 1
Формат : MPEG Video
Версия формата : Version 2
Профиль формата : Main@Main
Параметр BVOP формата : Да
Параметр матрицы формата : Выборочная
Параметр GOP формата : M=3, N=12
Format_Settings_PictureStructure : Frame
Идентификатор кодека : V_MPEG2
Идентификатор кодека/Информация : MPEG 1 or 2 Video
Продолжительность : 1 ч. 5 м.
Вид битрейта : Переменный
Битрейт : 3251 Кбит/сек
Ширина : 720 пикселей
Высота : 576 пикселей
Соотношение сторон : 4:3
Режим частоты кадров : Постоянный
Частота кадров : 25,000 кадров/сек
Стандарт вещания : PAL
Цветовое пространство : YUV
Субдискретизация насыщенности : 4:2:0
Битовая глубина : 8 бит
Тип развёртки : Чересстрочная
Порядок развёртки : Верхнее поле первое
Метод сжатия : С потерями
Бит/(Пиксели*Кадры) : 0.314
Временной код первого кадра : 00:00:00:00
Оригинал временного кода : Group of pictures header
Размер потока : 1,48 Гбайт (93%)
Default : Да
Forced : Нет
Gop_OpenClosed_FirstFrame : Closed
Аудио
Идентификатор : 2
Формат : MPEG Audio
Версия формата : Version 1
Профиль формата : Layer 2
Идентификатор кодека : A_MPEG/L2
Идентификатор кодека/Подсказка : MP2
Продолжительность : 1 ч. 5 м.
Вид битрейта : Постоянный
Битрейт : 192 Кбит/сек
Каналы : 2 канала
Частота : 48,0 КГц
Метод сжатия : С потерями
Размер потока : 89,7 Мбайт (5%)
Язык : Russian
Default : Да
Forced : Нет

Скриншоты

Резервные скриншоты

-[1'957]
[teatrix.ru].t19587.torrent 
Торрент: Зарегистрирован [ 2016-03-18 12:42 ] · 55089827F8031CF554E073C53568D9D83FA54E49

Скачать .torrent

Скачать

16 KB

Статус: проверено
Скачан: 0 раз
Размер: 1.6 GB
terms.php



Быстрый ответ

Имя:

      
Для отправки сообщений необходимо включить JavaScript
Показать сообщения:    

Текущее время: 10-Дек 10:01

Часовой пояс: UTC + 3


Вы можете начинать темы
Вы можете отвечать на сообщения
Вы не можете редактировать свои сообщения
Вы не можете удалять свои сообщения
Вы не можете голосовать в опросах
Вы не можете прикреплять файлы к сообщениям
Вы можете скачивать файлы