(Classical) Ernst Mielck - Dramatic Overture; Macbeth Overture; Finnish Suite; Altbohmisches Weihnachtslied; Altgermanisches Julfest - Kotilainen, Helsinki University SO, Mikk Murdvee - 2013, FLAC (image+.cue) lossless


 

[Цитировать]

Ernst Mielck - Dramatic Overture; Macbeth Overture; Finnish Suite; Altböhmisches Weihnachtslied; Altgermanisches Julfest - Kotilainen, Helsinki University SO, Mikk Murdvee
Жанр: Classical
Страна-производитель диска: UK
Год издания диска: 2013
Издатель (лейбл): Toccata Classics
Номер по каталогу: TOCC 0174
Дата записи: 2012, 2013
Аудиокодек: FLAC
Тип рипа: image+.cue
Битрейт аудио: lossless
Продолжительность: 61:28
Источник: собственный рип
Наличие сканов в содержимом раздачи: да
Треклист:
Ernst Mielck (1877-1899)
[1] Macbeth Overture, Op. 2
[2] Altböhmisches Weihnachtslied, Op. 5
[3] Dramatic Overture, Op. 6
[4] Altgermanisches Julfest, Op. 7
[5]-[9] Finnish Suite, Op. 10
Исполнители:
Juha Kotilainen baritone [4]
Academic Male-Voice Choir of Helsinki [2],[4]
Lyran Academic Female-Voice Choir [2]
Kampin Laulu Chamber Choir [2]
Helsinki University Symphony Orchestra
Mikk Murdvee
conductor

Лог создания рипа

Exact Audio Copy V1.0 beta 3 from 29. August 2011
EAC extraction logfile from 26. November 2014, 1:11
Helsinki University Symphony Orchestra, Mikk Murdvee / Mielck - Orchestral and Choral Works
Used drive : HL-DT-STDVDRAM GU70N Adapter: 0 ID: 0
Read mode : Secure
Utilize accurate stream : Yes
Defeat audio cache : Yes
Make use of C2 pointers : No
Read offset correction : 48
Overread into Lead-In and Lead-Out : No
Fill up missing offset samples with silence : Yes
Delete leading and trailing silent blocks : No
Null samples used in CRC calculations : Yes
Used interface : Native Win32 interface for Win NT & 2000
Used output format : User Defined Encoder
Selected bitrate : 128 kBit/s
Quality : High
Add ID3 tag : No
Command line compressor : C:\Program Files (x86)\Exact Audio Copy\Flac\flac.exe
Additional command line options : -V -8 -T "Date=%year%" -T "Genre=%genre%" %source%
TOC of the extracted CD
Track | Start | Length | Start sector | End sector
---------------------------------------------------------
1 | 0:00.00 | 13:31.52 | 0 | 60876
2 | 13:31.52 | 10:05.55 | 60877 | 106306
3 | 23:37.32 | 12:41.28 | 106307 | 163409
4 | 36:18.60 | 9:29.40 | 163410 | 206124
5 | 45:48.25 | 3:26.04 | 206125 | 221578
6 | 49:14.29 | 1:59.60 | 221579 | 230563
7 | 51:14.14 | 1:59.36 | 230564 | 239524
8 | 53:13.50 | 4:00.38 | 239525 | 257562
9 | 57:14.13 | 4:32.18 | 257563 | 277980
Range status and errors
Selected range
Filename C:\temp\Mielck - Orchestral and Choral Works\Mielck - Orchestral and Choral Works.wav
Peak level 89.5 %
Extraction speed 2.1 X
Range quality 99.9 %
Test CRC 1B72EF00
Copy CRC 1B72EF00
Copy OK
No errors occurred
AccurateRip summary
Track 1 accurately ripped (confidence 1) [ED3D6C0B] (AR v1)
Track 2 accurately ripped (confidence 1) [5E43CCBF] (AR v1)
Track 3 accurately ripped (confidence 1) [2680B374] (AR v1)
Track 4 accurately ripped (confidence 1) [8FD7F3A3] (AR v1)
Track 5 accurately ripped (confidence 1) [7875AF82] (AR v1)
Track 6 accurately ripped (confidence 1) [60A66697] (AR v1)
Track 7 accurately ripped (confidence 1) [8D1F6D40] (AR v1)
Track 8 accurately ripped (confidence 1) [DE379508] (AR v1)
Track 9 accurately ripped (confidence 1) [493D56C0] (AR v1)
All tracks accurately ripped
End of status report
==== Log checksum 99AC77ECD3B06EC3BFFA4D651801F6A4F63F8812BF4953CEEB72CC333BCFDB15 ====



Показать сообщения:    

Текущее время: 06-Дек 22:54

Часовой пояс: UTC + 3


Вы не можете начинать темы
Вы не можете отвечать на сообщения
Вы не можете редактировать свои сообщения
Вы не можете удалять свои сообщения
Вы не можете голосовать в опросах
Вы не можете прикреплять файлы к сообщениям
Вы не можете скачивать файлы