(Classical) Gustav Mahler: Symphony No. 3 in D minor (Michelle DeYoung, Chicago Symphony Orchestra, Bernard Haitink) - 2007, FLAC (tracks+.cue) lossless


 

[Цитировать]

Mahler: Symphony No. 3 in D minor (Michelle DeYoung, Chicago Symphony Orchestra, Bernard Haitink)
Жанр: Classical
Год издания диска: 2007
Издатель (лейбл): CSO Resound
Номер по каталогу: CSOR901701
Аудиокодек: FLAC
Тип рипа: tracks+.cue
Битрейт аудио: lossless
Продолжительность: 1 час 41 минута
Источник: собственный рип
Треклист:
Gustav Mahler: Symphony No. 3 in D minor
I. Kraftig, Entschieden
II. Tempo di menuetto - Sehr massig
III. Comodo, Scherzando, Ohne Hast
IV. Sehr langsam - Misterioso
V. Lustig im Tempo und keck im Ausdruck
VI. Langsam - Ruhevoll - Empfunden
Исполнители:
Michelle DeYoung (mezzo)
Chicago Symphony Orchestra, Women of the Chicago Symphony Chorus, Chicago Children's Choir,
Bernard Haitink

Лог создания рипа

==cd1==
X Lossless Decoder version 20141129 (148.1)
XLD extraction logfile from 2014-12-01 22:47:28 +0500
CSO · Bernard Haitink · Michelle DeYoung, m-s [et al.] / Mahler: Symphony No. 3 [CD1]
Used drive : ASUS SBW-06D2X-U (revision D501)
Media type : Pressed CD
Ripper mode : XLD Secure Ripper
Disable audio cache : OK for the drive with a cache less than 1375KiB
Make use of C2 pointers : NO
Read offset correction : 103
Max retry count : 20
Gap status : Analyzed, Appended (except HTOA)
TOC of the extracted CD
Track | Start | Length | Start sector | End sector
---------------------------------------------------------
1 | 00:00:00 | 35:14:01 | 0 | 158550
List of alternate offset correction values
# | Absolute | Relative | Confidence
------------------------------------------
1 | -473 | -576 | 9
AccurateRip Summary (DiscID: 00026b57-0004d6af-02084201)
Track 01 : OK (v1+v2, confidence 20/29)
->All tracks accurately ripped.
All Tracks
Statistics
Read error : 0
Jitter error (maybe fixed) : 0
Retry sector count : 0
Damaged sector count : 0
Track 01
Filename : /Volumes/Andy HD2/XLD/Mahler-Symphony No. 3 [Bernard Haitink, CSO]/CD1/01.01 Kraftig. Entschieden.flac
Pre-gap length : 00:02:00
CRC32 hash : F189B3E3
CRC32 hash (skip zero) : 9EBDC067
AccurateRip v1 signature : A1ED1183
AccurateRip v2 signature : C81A881C
->Accurately ripped (v1+v2, confidence 6+14/29)
Statistics
Read error : 0
Jitter error (maybe fixed) : 0
Retry sector count : 0
Damaged sector count : 0
No errors occurred
End of status report
==cd2==
X Lossless Decoder version 20141129 (148.1)
XLD extraction logfile from 2014-12-01 23:25:37 +0500
Bernard Haitink: Chicago Symphony Orchestra / Mahler: Symphony #3 [Disc 2]
Used drive : ASUS SBW-06D2X-U (revision D501)
Media type : Pressed CD
Ripper mode : XLD Secure Ripper
Disable audio cache : OK for the drive with a cache less than 1375KiB
Make use of C2 pointers : NO
Read offset correction : 103
Max retry count : 20
Gap status : Analyzed, Appended (except HTOA)
TOC of the extracted CD
Track | Start | Length | Start sector | End sector
---------------------------------------------------------
1 | 00:00:00 | 09:57:34 | 0 | 44808
2 | 09:57:34 | 18:09:42 | 44809 | 126525
3 | 28:07:01 | 09:12:05 | 126526 | 167930
4 | 37:19:06 | 04:16:72 | 167931 | 187202
5 | 41:36:03 | 24:37:11 | 187203 | 297988
List of alternate offset correction values
# | Absolute | Relative | Confidence
------------------------------------------
1 | -1037 | -1140 | 8
AccurateRip Summary (DiscID: 000c948a-003af926-510f8505)
Track 01 : OK (v1+v2, confidence 21/29)
Track 02 : OK (v1+v2, confidence 21/29)
Track 03 : OK (v1+v2, confidence 21/29)
Track 04 : OK (v1+v2, confidence 21/29)
Track 05 : OK (v1+v2, confidence 19/27)
->All tracks accurately ripped.
All Tracks
Statistics
Read error : 0
Jitter error (maybe fixed) : 0
Retry sector count : 0
Damaged sector count : 0
Track 01
Filename : /Volumes/Andy HD2/XLD/Mahler-Symphony No. 3 [Bernard Haitink, CSO]/CD2/02.01 Mahler. Symphony #3 In D Minor - 2. Tempo Di Menuetto, Sehr Massig.flac
Pre-gap length : 00:02:00
CRC32 hash : BC1622A5
CRC32 hash (skip zero) : 8BA6546E
AccurateRip v1 signature : E28FE236
AccurateRip v2 signature : BAD29F70
->Accurately ripped (v1+v2, confidence 6+15/29)
Statistics
Read error : 0
Jitter error (maybe fixed) : 0
Retry sector count : 0
Damaged sector count : 0
Track 02
Filename : /Volumes/Andy HD2/XLD/Mahler-Symphony No. 3 [Bernard Haitink, CSO]/CD2/02.02 Mahler. Symphony #3 In D Minor - 3. Comodo. Scherzando, Ohne Hast.flac
Pre-gap length : 00:03:01
CRC32 hash : CE3E94A7
CRC32 hash (skip zero) : 20C51593
AccurateRip v1 signature : 13E5034B
AccurateRip v2 signature : BE557E51
->Accurately ripped (v1+v2, confidence 6+15/29)
Statistics
Read error : 0
Jitter error (maybe fixed) : 0
Retry sector count : 0
Damaged sector count : 0
Track 03
Filename : /Volumes/Andy HD2/XLD/Mahler-Symphony No. 3 [Bernard Haitink, CSO]/CD2/02.03 Mahler. Symphony #3 In D Minor - 4. Sehr Langsam, Misterioso.flac
Pre-gap length : 00:03:40
CRC32 hash : 4B56A321
CRC32 hash (skip zero) : 4EF0C8E7
AccurateRip v1 signature : 35FEBE78
AccurateRip v2 signature : 3947338D
->Accurately ripped (v1+v2, confidence 6+15/29)
Statistics
Read error : 0
Jitter error (maybe fixed) : 0
Retry sector count : 0
Damaged sector count : 0
Track 04
Filename : /Volumes/Andy HD2/XLD/Mahler-Symphony No. 3 [Bernard Haitink, CSO]/CD2/02.04 Mahler. Symphony #3 In D Minor - 5. Lustig Im Tempo Und Keck Im Ausdruck.flac
CRC32 hash : 2BDC55C0
CRC32 hash (skip zero) : DFCDC864
AccurateRip v1 signature : 9FF4287A
AccurateRip v2 signature : B5633AC7
->Accurately ripped (v1+v2, confidence 6+15/29)
Statistics
Read error : 0
Jitter error (maybe fixed) : 0
Retry sector count : 0
Damaged sector count : 0
Track 05
Filename : /Volumes/Andy HD2/XLD/Mahler-Symphony No. 3 [Bernard Haitink, CSO]/CD2/02.05 Mahler. Symphony #3 In D Minor - 6. Langsam.flac
CRC32 hash : 0D70874C
CRC32 hash (skip zero) : 0E2F86FB
AccurateRip v1 signature : 1A36298C
AccurateRip v2 signature : E4642D5E
->Accurately ripped (v1+v2, confidence 6+13/27)
Statistics
Read error : 0
Jitter error (maybe fixed) : 0
Retry sector count : 0
Damaged sector count : 0
No errors occurred
End of status report

Содержание индексной карты (.CUE) CD#1

TITLE "Mahler: Symphony No. 3 [CD1]"
PERFORMER "CSO · Bernard Haitink · Michelle DeYoung, m-s [et al.]"
CATALOG 0810449017022
REM GENRE "Classical"
REM DATE "2007"
REM DISCID 02084201
FILE "01.01 Kraftig. Entschieden.flac" WAVE
TRACK 01 AUDIO
TITLE "Kräftig. Entschieden"
ISRC USH550700001
INDEX 01 00:00:00

Содержание индексной карты (.CUE) CD#2

TITLE "Mahler: Symphony #3 [Disc 2]"
PERFORMER "Bernard Haitink: Chicago Symphony Orchestra"
CATALOG 0810449017039
REM GENRE "Classical"
REM DATE "2007"
REM DISCNUMBER 2
REM TOTALDISCS 2
REM DISCID 510F8505
FILE "02.01 Mahler. Symphony #3 In D Minor - 2. Tempo Di Menuetto, Sehr Massig.flac" WAVE
TRACK 01 AUDIO
TITLE "Mahler: Symphony #3 In D Minor - 2. Tempo Di Menuetto, Sehr Mässig"
PERFORMER "Bernard Haitink: Chicago Symphony Orchestra"
SONGWRITER "Gustav Mahler"
ISRC USH550700002
INDEX 01 00:00:00
TRACK 02 AUDIO
TITLE "Mahler: Symphony #3 In D Minor - 3. Comodo. Scherzando, Ohne Hast"
PERFORMER "Bernard Haitink: Chicago Symphony Orchestra"
SONGWRITER "Gustav Mahler"
ISRC USH550700003
INDEX 00 09:54:33
FILE "02.02 Mahler. Symphony #3 In D Minor - 3. Comodo. Scherzando, Ohne Hast.flac" WAVE
INDEX 01 00:00:00
TRACK 03 AUDIO
TITLE "Mahler: Symphony #3 In D Minor - 4. Sehr Langsam, Misterioso"
PERFORMER "Bernard Haitink: Chicago Symphony Orchestra"
SONGWRITER "Gustav Mahler"
ISRC USH550700004
INDEX 00 18:06:02
FILE "02.03 Mahler. Symphony #3 In D Minor - 4. Sehr Langsam, Misterioso.flac" WAVE
INDEX 01 00:00:00
FILE "02.04 Mahler. Symphony #3 In D Minor - 5. Lustig Im Tempo Und Keck Im Ausdruck.flac" WAVE
TRACK 04 AUDIO
TITLE "Mahler: Symphony #3 In D Minor - 5. Lustig Im Tempo Und Keck Im Ausdruck"
PERFORMER "Bernard Haitink: Chicago Symphony Orchestra"
SONGWRITER "Gustav Mahler"
ISRC USH550700005
INDEX 01 00:00:00
FILE "02.05 Mahler. Symphony #3 In D Minor - 6. Langsam.flac" WAVE
TRACK 05 AUDIO
TITLE "Mahler: Symphony #3 In D Minor - 6. Langsam"
PERFORMER "Bernard Haitink: Chicago Symphony Orchestra"
SONGWRITER "Gustav Mahler"
ISRC USH550700006
INDEX 01 00:00:00



Показать сообщения:    

Текущее время: 08-Дек 07:07

Часовой пояс: UTC + 3


Вы не можете начинать темы
Вы не можете отвечать на сообщения
Вы не можете редактировать свои сообщения
Вы не можете удалять свои сообщения
Вы не можете голосовать в опросах
Вы не можете прикреплять файлы к сообщениям
Вы не можете скачивать файлы