«Дюна» Ходоровского / Jodorowsky's Dune (Фрэнк Павич / Frank Pavich) [2013, документальный, кинематограф, история, фантастика, HDRip] rus sub + Original


Статистика раздачи [Обновить пиров]
Размер:  1.46 GB   |    Зарегистрирован:  8 месяцев 22 дня   |    Скачан:  0 раз

Полного источника не было: Никогда

 
   
 
 
 

[Цитировать]

«Дюна» Ходоровского / Jodorowsky's Dune
Год выпуска: 2013
Страна: США, Франция
Жанр: документальный, кинематограф, история
Продолжительность: 01:30:14
Перевод: Субтитры (effrit_, Lavroff, afe, kaptnG)
Оригинальная аудиодорожка: английский, французский, испанский, немецкий
Режиссер: Фрэнк Павич / Frank Pavich
Описание: В начале 1970-х годов режиссёр Алехандро Ходоровски начал подготовку к съёмке экранизации научно-фантастического романа Фрэнка Герберта «Дюна». Однако два года работы так и не дали результата, фильм так и не был снят. Фильм позволит заглянуть за кулисы фильма «Дюна». В нем используются интервью с самим Ходоровски, Гигером и другими членами команды несостоявшейся экранизации.
Sample

Работа с видео: whip93
Релиз:
качество: HDRip
формат: AVI
Видео: Xvid 720x400 23.976fps 1862kbps
Аудио: Dolby AC3 48000Hz 6ch 448kbps
Формат субтитров: softsub (SRT)
Субтитры заменены на полные. Спасибо effrit_ за перевод английской речи!

Фрагмент субтитров

1
00:00:14,083 --> 00:00:21,683
"То, что дает свет,
рано или поздно неизбежно сгорает"
Виктор Франкл

2
00:00:55,850 --> 00:01:00,750
Алехандро Ходоровский
3
00:01:05,350 --> 00:01:10,083
Мишель Сейду
4
00:01:15,450 --> 00:01:20,683
Крис Фосс
5
00:01:24,150 --> 00:01:28,650
Ганс Рудольф Гигер
6
00:01:32,750 --> 00:01:37,150
Жан-Поль Жибон
7
00:01:41,250 --> 00:01:46,117
Бронте Ходоровский
8
00:01:53,950 --> 00:01:56,740
Какова цель жизни?
9
00:01:58,700 --> 00:02:01,680
Чтобы создать свою душу.
10
00:02:04,720 --> 00:02:06,740
Для меня кино —это искусство...
11
00:02:08,520 --> 00:02:10,650
выше, чем индустрия
12
00:02:12,670 --> 00:02:15,680
И это поиск человеческой души,
13
00:02:16,540 --> 00:02:19,550
как живопись, литература, поэзия.
14
00:02:22,660 --> 00:02:25,500
Кино —это всё для меня.
15
00:02:47,600 --> 00:02:49,650
Я хотел сделать фильм...
16
00:02:53,620 --> 00:02:59,210
который вызовет у людей,
употреблявших ЛСД в те времена,
17
00:02:59,560 --> 00:03:02,510
ощущение галлюцинаций, как от наркотика
18
00:03:02,550 --> 00:03:03,700
без самого наркотика.
19
00:03:04,600 --> 00:03:09,720
Я не хочу чтобы принимали LSD,
но хочу изобразить эффект от них.
20
00:03:10,510 --> 00:03:14,700
Этот фильм собирался
изменить ощущения публики.

MediaInfo

General
Complete name : D:\Фильмы\Jodorowsky's.Dune.2013.HDRip.CasStudio.TV\Jodorowsky's.Dune.2013.HDRip.CasStudio.TV.avi
Format : AVI
Format/Info : Audio Video Interleave
File size : 1.46 GiB
Duration : 1h 30mn
Overall bit rate : 2 319 Kbps
Writing application : VirtualDubMod 1.5.10.3 | www.virtualdub-fr.org || (build 2550/release)
Writing library : VirtualDubMod build 2550/release
Video
ID : 0
Format : MPEG-4 Visual
Format profile : Advanced Simple@L5
Format settings, BVOP : 1
Format settings, QPel : No
Format settings, GMC : No warppoints
Format settings, Matrix : Default (MPEG)
Codec ID : XVID
Codec ID/Hint : XviD
Duration : 1h 30mn
Bit rate : 1 862 Kbps
Width : 720 pixels
Height : 400 pixels
Display aspect ratio : 16:9
Frame rate : 23.976 fps
Color space : YUV
Chroma subsampling : 4:2:0
Bit depth : 8 bits
Scan type : Progressive
Compression mode : Lossy
Bits/(Pixel*Frame) : 0.270
Stream size : 1.17 GiB (80%)
Writing library : XviD 1.2.1 (UTC 2008-12-04)
Audio
ID : 1
Format : AC-3
Format/Info : Audio Coding 3
Mode extension : CM (complete main)
Format settings, Endianness : Big
Codec ID : 2000
Duration : 1h 30mn
Bit rate mode : Constant
Bit rate : 448 Kbps
Channel(s) : 6 channels
Channel positions : Front: L C R, Side: L R, LFE
Sampling rate : 48.0 KHz
Bit depth : 16 bits
Compression mode : Lossy
Stream size : 289 MiB (19%)
Alignment : Split accross interleaves
Interleave, duration : 42 ms (1.00 video frame)
Interleave, preload duration : 500 ms

Скриншоты

[teatrix.ru].t19592.torrent 
Торрент: Зарегистрирован [ 2016-03-18 12:27 ] · D3C74FBF12B4F061B0C1CEFED335BF581E677D46

Скачать .torrent

Скачать

15 KB

Статус: проверено
Скачан: 0 раз
Размер: 1.46 GB
terms.php



Показать сообщения:    

Текущее время: 10-Дек 08:05

Часовой пояс: UTC + 3


Вы не можете начинать темы
Вы не можете отвечать на сообщения
Вы не можете редактировать свои сообщения
Вы не можете удалять свои сообщения
Вы не можете голосовать в опросах
Вы не можете прикреплять файлы к сообщениям
Вы можете скачивать файлы