Genesis - Части целого / Genesis: Together and Apart (Джон Эджентон / John Edginton) [2014, документальный, биография, HDTVRip]


Статистика раздачи [Обновить пиров]
Размер:  1.35 GB   |    Зарегистрирован:  8 месяцев 17 дней   |    Скачан:  0 раз

Полного источника не было: Никогда

 
   
 
 
 

[Цитировать]

Genesis - Части целого / Genesis: Together and Apart
Дата/Год выпуска: 2014
Страна: Великобритания
Жанр: документальный, биография
Продолжительность: 01:29:56
Перевод: Профессиональный (многоголосый закадровый)
Доп. инфо о переводе: студия "Эй-Би-Видео"
Русские субтитры: нет
Оригинальная аудиодорожка: нет
Режиссер: Джон Эджентон / John Edginton
Телеканал: 1 канал
Описание: Группа "Genesis" - одна из наиболее успешных и продаваемых в истории рок-музыки и в то же время одна из самых критикуемых. Коллектив едва не распался в середине 70-х после ухода из коллектива ее лидера - Питера Гэбриэла. После этого группа смогла продолжить существование с новым вокалистом, сменила стиль и вернулась в чарты в 1980-х. Примечательно, что ее лидерам удавалось совмещать деятельность в "Genesis" с не менее успешной сольной карьерой. В картине с участием Питера Гэбриэла и Фила Коллинза рассказывается удивительная история британских рокеров.
Доп. информация: Рип с канала Первый HD. Из видеоряда удален логотип канала.
Сэмпл: http://sendfile.su/1056191
качество: HDTVRip
формат: AVI
Видео: MPEG4, XviD, 720x400 (16/9), 25.000 fps, 1 953 Kbps (0.271 bit/pixel)
Аудио: AC-3, 48.0 KHz, 2 ch, 192 Kbps, CBR

MediaInfo

Общее
Полное имя : K:\Genesis - Части целого.avi
Формат : AVI
Формат/Информация : Audio Video Interleave
Размер файла : 1,35 Гбайт
Продолжительность : 1 ч. 29 м.
Общий поток : 2155 Кбит/сек
Название фильма : Genesis - Части целого / Genesis (2014)
Программа кодирования : VirtualDubMod 1.5.10.2 (build 2540/release)
Правообладатель : miha2154
Видео
Идентификатор : 0
Формат : MPEG-4 Visual
Профиль формата : Advanced Simple@L5
Параметр BVOP формата : 1
Параметр QPel формата : Нет
Параметр GMC формата : Без точки перехода
Параметр матрицы формата : Выборочная
Идентификатор кодека : XVID
Идентификатор кодека/Подсказка : XviD
Продолжительность : 1 ч. 29 м.
Битрейт : 1953 Кбит/сек
Ширина : 720 пикселей
Высота : 400 пикселей
Соотношение сторон : 16:9
Частота кадров : 25,000 кадров/сек
Цветовое пространство : YUV
Субдискретизация насыщенности : 4:2:0
Битовая глубина : 8 бит
Тип развёртки : Прогрессивная
Метод сжатия : С потерями
Бит/(Пиксели*Кадры) : 0.271
Размер потока : 1,23 Гбайт (91%)
Библиотека кодирования : XviD 65
Аудио
Идентификатор : 1
Формат : AC-3
Формат/Информация : Audio Coding 3
Расширение режима : CM (complete main)
Параметр Endianness формата : Big
Идентификатор кодека : 2000
Продолжительность : 1 ч. 29 м.
Вид битрейта : Постоянный
Битрейт : 192 Кбит/сек
Каналы : 2 канала
Расположение каналов : Front: L R
Частота : 48,0 КГц
Битовая глубина : 16 бит
Метод сжатия : С потерями
Размер потока : 124 Мбайт (9%)
Выравнивание : Разделение по промежуткам
Продолжительность промежутка : 40 мс. (1,00 видеокадр)
Время предзагрузки промежутка : 500 мс.
Заголовок : Профессиональный (многоголосый закадровый) 1 канал

Скриншоты

[teatrix.ru].t19598.torrent 
Торрент: Зарегистрирован [ 2016-03-18 12:41 ] · 76225B58F0EF8B0712695B8682A7A3D9F6A8E976

Скачать .torrent

Скачать

14 KB

Статус: проверено
Скачан: 0 раз
Размер: 1.35 GB
terms.php



Быстрый ответ

Имя:

      
Для отправки сообщений необходимо включить JavaScript
Показать сообщения:    

Текущее время: 04-Дек 15:13

Часовой пояс: UTC + 3


Вы можете начинать темы
Вы можете отвечать на сообщения
Вы не можете редактировать свои сообщения
Вы не можете удалять свои сообщения
Вы не можете голосовать в опросах
Вы не можете прикреплять файлы к сообщениям
Вы можете скачивать файлы