(organ, chamber)Les Maitres de l'Orgue Francais de Louis XIII à la Monarchie de Juillet (French Organ Masters From Louis XIII to Louis-Philippe); {Radio France 8CD box} - 2014, FLAC (tracks+.cue) lossless


Статистика раздачи [Обновить пиров]
Размер:  2.61 GB   |    Зарегистрирован:  8 месяцев 22 дня   |    Скачан:  1 раз

Полного источника не было: 1 месяц 9 дней

 
   
 
 
 

[Цитировать]

Les Maîtres de l'Orgue Français de Louis XIII à la Monarchie de Juillet
French Organ Masters From Louis XIII to Louis-Philippe

Жанр: organ, chamber
Страна-производитель диска: EU
Год издания диска: 2014
Издатель (лейбл): Radio France
Номер по каталогу: TEM 316045/52
Дата записи: 1987-2013
Аудиокодек: FLAC
Тип рипа: tracks+.cue
Битрейт аудио: lossless
Продолжительность: 09:12:56
Источник: DC++
Наличие сканов в содержимом раздачи: да
Треклист:

CD1-Recherches et fantasies

Louis Couperin (ca 1626-1661)
[1] Fantaisie de Violes par M'Couperin, en Ré mineur
(dessus et basse de violes - continuo)
Charles Racquet (1597-1664)
[2] Fantaisie (1636)
Louis Couperin
[3] Simphonie par Mr Couperin (dessus, taille et basse de violes)
[4] Chaconne en Sol mineur
[5] Fantaisie, sur la tierce du Grand Clavier avec le tremblant lent
[6] Fantaisie (en basse)
[7] Fantaisie (en quatuor)
[8] Duo. Par Mr Couperin, en Sol mineur (dessus et basse de violes)
[9] Prélude, autre livre, Grand livre d'orgue
Il fautjouer cecy d'un Mouvementfort lent; 1654 (1ere version)
[10] Fantaisie; 1651
[11] Fantaisie; à Paris le 15 mai 1656
[12] Fugue renversée; le 15 juillet 1656
[13] Fugue; à Paris, le 22 juillet 1656
[14] Simphonie par Mr Couperin en Ré mineur
(dessus et basse de violes - continuo)
Jehan Titelouze (1563-1633)
Magnificatprimi toni
[15] Magnificat
[16] Quia respexit
[17] Et misericordia ejus
[18] Deposuit potentes
[19] Suscepit Israël
[20] Gloria Patri et Filio
François Roberday (1624-1680)
[21] Fugue 9eme et Caprice sur le mesme sujet
(2 dessus, taille et basse de violes)
[22] Fugue 10eme (orgue)
[23] Fugue 11eme (2 dessus, taille et basse de violes)
[24] Fugue 12eme (orgue)

CD2-Livres d'Orgue

Guillaume-Gabriel Nivers (ca 1632-1714)
Magnificat/Prélude (Suite) du 6' Ton (1665)
[1] Magnificat anima mea
[2] Et exultavit spiritus meus in Deo salutari meo (faux-bourdon de D. Vellard)
[3] Quia respexit, Duo
[4] Quia fecit mihi magna qui potens est, et sanctum nomen ejus
(plain-chant de Nivers)
[5] Et misericordia, Récit de Cromhorne
[6] Fecit potentiam in brachio suo, dispersit superbos mente cordis sui
(faux-bourdon de D. Vellard)
[7] Deposuit potentes, Basse de Trompette
[8] Esurientes implevit bonis et divites dimisit inanes (plain-chant de Nivers)
[9] Suscepit Israël, Cornet
[10] Sicut locutus est ad patres nostros, Abraham et semini ejus in saecula
(faux-bourdon de D. Vellard)
[11] Gloria Patri, Grand Jeu
[12] Sicut erat in principio, et nunc et semper, et in sascula saeculorum
(plain-chant de Nivers)
[13] Amen, Plein Jeu
Messe (1667)
[14] Offerte en fugue et Dialogue
[15] Motet : Venite, adoremus
[16] Benedictus, Récit de Cromhorne
Nicolas Lebègue (1631-1702)
Pièces d'orgue et motets
[17] Vent sancte Spiritus, motet pour le Saint Esprit
[18] Elévation en Gmoll
[19] O Crux ave, motet à 2 dessus pour la Semaine Sainte
Jacques Boyvin (ca 1650-1706)
Livre d'orgue, Suite du troisième ton
[20] Grand Dialogue
André Raison (ca 1645-1719)
Messe du premier ton
[21] Sanctus
[22] Second Sanctus
[23] Benedictus
[24] Elévation
[25] AgnusDei
[26] Second Agnus (Duo)
[27] Deo Gratias
Nicolas Lebègue
[28] Regina cœli, motet de la Sainte Vierge, pour le temps de Pâques
[29] Offertoire sur le chant d'O filii etfiliae & chant alterné
Gilles Jullien (ca 1653-1703)
Livre d'orgue
[30] Prélude
[31] Fugue renversée
[32] Dessus de tierce ou chromorne
[33] Dialogue

CD3-Apogee classique

Jean-Baptiste Lully (1632-1687)
[1] Grand Jeu, en Sol majeur Cadmus et Hermione - Ouverture
(Transcription Michel Alabau)
François Couperin (1668-1733)
[2] Motet: Dialogues interjesum et Hominem, à 2 voix
Messe à l'usage ordinaire des Paroisses pour les Fêtes solemnelles
Gloria
[3] Plein Jeu. Et in Terra fax
[4] Petitte fugue sur le Chromorne. 2e couplet du Gloria
[5] Duo sur les Tierces. 3e Couplet
[6] Dialogue sur les Trompettes, Clairon et Tierces du Grand Clavier
et le bourdon avec le larigot du positif. 4e Couplet
[7] Trio à 2 dessus de Chromhorne et la basse de Tierce. 5e Couplet
[8] Tierce en Taille. 6e Couplet
[9] Dialogue sur la Voix humaine. 7e Couplet
[10] Dialogue en trio du Cornet et de la Tierce. 8e Couplet
[11] Dialogue sur les Grands jeux. 9e et dernier Couplet
[12] Offertoire sur les Grands jeux
[13] Motet: Precatio ad Deum, à 3 voix
Louis Marchand (1669-1732)
Livre III
[14] Grand dialogue (1696)
François Couperin
[15] Motet: Usquequo Domine, à voix seule
Nicolas de Grigny (1672-1703)
Hymne Veni Creator
[16] Veni Creator, en Taille à 5
[17] Fugue à 5
[18] Duo
[19] Récit de Cromorne
[20] Dialogue sur les Grands Jeux

CD4-Messe et suites

Nicolas de Grigny (1672-1703)
Premier livre d'orgue contenant une Messe et les Hymnes
des principales fêtes de l'année
Messe - Gloria
[1] Et in Terra Pax à S
[2] Fugue
[3] Duo
[4] Basse de trompette ou de Cromome
[5] Récit de Tierce en taille
[6] Dialogue
[7] Fugue à 5
[8] Trio
[9] Dialogue
[10] Offertoire sur les Grands Jeux
Jean Adam Guilain (ca 1680-ca 1739)
Suites pour le Magnificat (1706)
Suite du Premier ton
[11] Chœur: Antienne - Beata mater... (offices de la Vierge, le samedi)
Orgue: Plein-Jeu - Magnificat anima mea Dominum
[12] Chœur: Et exultavit spiritus meus...
Orgue: Trio - Quia respexit humilitatem...
[13] Chœur: Quiafecit mihi magna...
Orgue: Duo - Et misericordia ejus...
[14] Chœur: Fecit potentiam in bracchio suo
Orgue: Basse de trompette - Déposaitpotentes de sede...
[15] Chœur: Esurientes simplevit bonis
Orgue: Récit — Suscepit Israël puerum suum
[16] Chœur: Sicut Locutus est ad Patres nostros
Orgue: Dialogue - Gloria Patri, et Filio, et Spiritui Sancto
[17] Chœur: Sicut erat inprincipio
Orgue: Petit Plein-jeu - Beata Mater... (reprise de l'Antienne)
Pierre du Mage (1674-1751)
1er Livre d'orgue contenant une suite du premier ton
[18] Plein Jeu
[19] Fugue
[20] Trio
[21] Tierce en taille
[22] Basse de trompette
[23] Récit
[24] Duo
[25] Grand jeu

CD5-Tribunes et salons

Louis Marchand (1669-1732)
Premier Livre (édition 1740)
[1]Plein jeu
[2]Fugue
[3]Trio
[4]Basse de trompette
[5]Quatuor
[6]Tierce en taille
[7]Duo
[8]Récit
[9]Tierce en taille
[10]Basse de trompette ou de cromorne
[11]Fond d'orgue
[12]Dialogue
Louis-Nicolas Clérambault (1676-1749)
Suite du 2e ton (1710) alternée avec le chant du Benedictus au chœur
[13] Beata Dci genitrix: Antienne du Benedictus
[14] Benedictus Dominus Deus Israël (Orgue / Plein jeu)
[15] Et erexit cornu salutis nobis
[16] Sicut locutus est (Orgue / Duo)
[17] Salutem ex inimicis nostris
[18] Ad faciendam misericordiam (Orgue /Trio)
[19] Jusjurandum quod juravit
[20] Ut sine timoré de manu (Orgue / Basse de cromorne)
[21] In sanctitate et justitia
[22] Et tu puer propheta (Orgue / Flûtes)
[23] Ad dandam scientiam...
[24] Per viscera misericordiae... (Orgue / Récit de nazard)
[25] Illuminare his qui in tenebris...
[26] Gloria patri... (Orgue / Caprice sur les grands jeux)
[27] Sicut erat... Amen
[28] Beata Dei genitrix: Antienne
Louis Antoine Dornel (1685-1765)
Suite d'orgue en Ré
[29] Prélude
[30] Fugue
[31] Duo
[32] Trio
[33] Basse
[34] Dialogue
Sonate en trio n°6 en La mineur (livre de 1713)
2 hautbois et basse continue (basson, orgue)
[35] Prélude, lentement
[36] Allemande, gaiement
[37] Sarabande
[38] Gavotte
[39] Air en gigue
Pièces d'orgue en La
[40] Basse et dessus de trompette en dialogue
[41] Cromorne en taille

CD6-Divertissements

Jean-François Dandrieu (1682-1738)
Pièces de clavecin
Premier Livre (1724)
[1] L'afligée
[2] La Gémissante - Rondeau
[3] Les Tourbillons - Rondeau (de la Seconde Suite)
[4] Le Timpanon et quatre variations (de la Troisième Suite)
Deuxième Livre (1728)
[5] La Lully - Ouverture
[6] La Corelli
[7] Double de la Corelli
[8] La Lyre d'Orphée
[9] Le Turbulent - Menuet (de la Première Suite)
Pièces d'orgue - Noëls
[10] Noël «Or nous dites Marie»
Suite en G Ré Sol
[11] Offertoire
[12] Fugue
[13] Cromorne en taille
[14] Récit de Nazard
[15] Tierce en taille
[16] Basse de cromorne
[17] Dialogue
Louis-Claude Daquin (1694-1772)
Premier Livre de Pièces de clavecin (Paris, 1735)
Troisième suite
[18] Le Coucou - Rondeau, vif
[19] La Joyeuse: Rondeau, légèrement
[20] La Tendre Silvie: Rondeau, tendrement
[21] L'Amusante: 1ère Partie Rondeau, tendrement
2eme Partie Rondeau, nottes très liées
Jean-François Dandrieu
[22] Noël «Une bergère jolie»
Suite en D La Ré majeur
[23] Plein jeu
[24] Trio
[25] Duo sur la trompette
[26] Trio avec la pédale
[27] Flûtes
[28] Duo en cors de chasse sur la trompette
Louis-Claude Daquin
Quatrième suite - Les Plaisirs de la chasse - Divertissement (extraits)
[29] Réjouissance des Chasseurs: Fanfare en Rondeau
[30] Suite de la Réjouissance: Gavotte en Rondeau et 4 Doubles
Jean-Philippe Rameau (1683-1764)
[31] Grand dialogue, en Ré mineur
Hippolyte et Aricie - Ouverture
(transcription de Michel Alabau)

CD7-Concertos et Noëls

Michel Corrette (1707-1795)
Concerto pour orgue en Ré majeur opus 26 n° 3
[1] Allegro
[2] Andante
[3] Adagio
[4] Allegro
Noël
[5] Tous les Bourgeois de Chastres
Louis-Claude Daquin (1694-1772)
Nouveau Livre de Noëls (Paris, 1757)
[6] IIIe Noël en Musette, très tendrement
[7] Ve Noël
[8] VIe Noël
Michel Corrette
Concerto pour orgue en Ré mineur op.26 n° 6
[9] Allegro
[10] Andante
[11] Presto
Claude Balbastre (1724-1799)
Troisième Suitte de Noëls
[12] Prélude, Gracieusement
[13] Que tu grô jan, quei folie, Gaiement
[14] Divine Princesse, Gracieusement
[15] O jour ton divin Flambeau, Lentement
[16] Quel désordre dans la nature, Gracieusement
[17] Vé Noci Blaizôte, Gracieusement — mineur — variation du majeur
[18] Fanne coraige, le diale â mor, Sans vitesse — modéré
Concerto en Ré majeur
[19] Prélude
[20] Allegro
[21] Gavottes 1 & 2
[22] Allegro

CD8-Orages et renouveau

Michel Corrette (1707-1795)
[1] Grand jeu avec le Tonnerre - Allegro en Sol mineur (1787)
Josse-François-Joseph Benaut (mort en 1794)
[2] Voix Humaine, tendrement
[3] Récit Arpégetto
Claude Balbastre (1724-1799)
[4] Chasse, en Si bémol majeur
[5] Musette, en Fa majeur
[6] Pastoralle tout de suite, en Fa mineur/majeur
Jean-Jacques Beauvarlet-Charpentier (1734-1794)
[7] Fuga III, Allegro Moderato, en La mineur
(journal d'orgue, Paris, 1783)
[8] Fuga IV, Allegro, en La mineur
(Six fugues pour orgue ou clavecin, Paris, 1777)
Armand-Louis Couperin (1727-1789)
[9] Dialogue entre le Chalumeau et le Basson, en Sol majeur/mineur
[10] La Chasse, en Ré majeur
Guillaume Lasceux (1740-1831)
[11] Offertoire Symphonie concertante en Sol majeur
Gervais-François Couperin (1759-1826)
[12] Louis XVIII ou le retour du bonheur en France op.14
Entrée des Alliés; Vive Henri IV; Déchéance de Bonaparte;
Entrée de Louis XVIII ; airs «Vive le Roy», «te bien aimer»
et «où peut-on être mieux»
Alexandre-Pierre-François Boëly (1785 1858)
[13] Dialogue du cornet et du basson (op. 35 n°8)
[14] Quatuor à 2 claviers séparés (op. 10 n°12)
[15] Rentrée de la procession (op. 42 n°14)
[16] Prélude d'orgue (op. 18 n°2)
[17] Antienne: Rorate Coeli
[18] Hymne: Stufete gentes
Hymne du 5e ton (op. 37 n°8)
Fughetta (op. 37 n°10)
Trio à dessus de Cromorne et basse de tierce (op. 37 n°11)
Fugue du 5e ton, à 2 sujets (op. 36 n°3)
[19] Allegro ma non troppo Fa mineur (op. 18 n°7)
[20] Andante con moto en Mi bémol majeur (op. 18 n°1)
[21] Fantaisie et Fugue en Si bémol (op. 18 n°6)
-

Исполнители:CD1

[1] Ensemble de violes Fretwork (enregistré en 2000)
André Isoir, orgue
[2] Frédéric Desenclos, orgue (enr. 2006)
[3], [8] Ensemble de violes Fretwork (enr. 2000)
[4 à 7] AndréIsoir, orgue (enr. 1987)
[9 à 13] Davitt Moroney, orgue (enr. 1995)
[14] Ensemble de violes Fretwork
André Isoir, orgue
[15 à 20] Frédéric Desenclos, orgue
[21 à 24] André Isoir, orgue
Ensemble de violes Fretwork
Orgue Jean-Boizard (1714) / Saint-Michel en Thiérache

CD2

[1 à 16] Keï Koïto,
Orgue Jean-Boizard (1714) / Saint-Michel enlhiérache
Ensemble Gilles Binchois - Dir. Dominique Vellard
Dominique Vellard, ténor — Jacques Bona, basse [15] (enr. 2004)
[17 à 19] Martin Gester,
Orgue Jean-Boizard (1714) / Saint-Michel en Thiérache
Salomé Haller [17],
Mathilde Etienne, Marie-Bénédicte Souquet, sopranos [19] (enr. 2003)
[20] Aude Heurtematte,
Orgue F.H. Clicquot (1783) / Souvigny (enr. 1995)
[21 à 27] Serge Schoonbroodt,
Orgue J.-F. Lépine (1752) / Sarlat (enr. 2005)
[28 à 29] Martin Gester,
Orgue Jean-Boizard (1714) / Saint-Michel en Thiérache
Salomé Haller [28]
Mathil de Etienne, Marie-Bénédicte Souquet, sopranos
Muriel Ferraro, mezzo-soprano [29]
[30 à 33] Frédéric Desenclos,
Orgue Jean-Boizard (1714) / Saint-Michel en Thiérache (enr. 2006)

CD3

[1] Michel Alabau,
Orgue J.E. Isnard (1774) / Saint-Maximin-La-Sainte-Baume (enr. 1996)
[2 à 13] Frédéric Desenclos, orgue et direction
Orgue F.H. Clicquot (1791) / Poitiers (Messe)
Orgue Jean-Boizard (1714) / Saint-Michel en Thiérache (Motets)
Ensemble Pierre Robert:
Robert Getchel (taille), Arnaud Marzorati (basse de taille) [2], [13]
Marcel Beekman (haute contre) [13] (enr. 2001-2002)
[14] Frédéric Desenclos,
Orgue J.-F. Lépine (1752) / Sarlat (enr. 2011)
[15] Frédéric Desenclos, orgue et direction
Orgue Jean-Boizard (1714) / Saint-Michel en Thiérache
Marcel Beekman (haute contre)
[16 à 20] André Isoir,
Orgue Jean-Boizard (1714) / Saint-Michel en Thiérache (enr. 1992)

CD4

[1 à 10] André Isoir, orgue (enr. 1992)
[11 à 17] André Isoir, orgue (enr. 1997)
Les Demoiselles de Saint-Cyr, Dir. Emmanuel Mandrin
[18 à 25] Frédéric Desenclos, orgue, (enr. 2006)
Orgue Jean-Boizard (1714) / Saint-Michel en Thiérache

CD5

[1 à 12] Frédéric Desenclos,
Orgue J.-F. Lépine (1752) / Sarlat (enr. 2011)
[13 à 28] Jean Boyer,
Orgue Jean-Boizard (1714) / Saint-Michel en Thiérache
Les Demoiselles de Saint-Cyr, Dir. Emmanuel Mandrin (enr. 1993)
[29 à 41] Gilles Harlé,
Orgue Jean-Boizard (1714) / Saint-Michel en Thiérache
La Simphonie du Marais, Dir. Hugo Reyne [35 à 39] (enr. 1997)

CD6

[1 à 9] Olivier Baumont,
Clavecin Benoist-Stehlin (1750) / Saint-Quentin (enr. 1987)
[10 à 17] André Isoir,
Orgue Jean-Boizard (1714) / Saint-Michel enlhiérache (enr. 1987)
[18 à 21] Olivier Baumont,
Clavecin Jacques-Goermans (1774) / Paris (enr. 2002)
[22 à 28] André Isoir,
Orgue Jean-Boizard (1714) / Saint-Michel en Thiérache
[29 à 30] La Simphonie du Marais, Dir. Hugo Reyne (enr. 2002)
[31] Michel Alabau,
Orgue J.E. Isnard (1774) / Saint-Maximin-La-Sainte-Baume (enr. 1996)

CD7

[1 à 5] Fabio Bonizzoni, orgue et direction
Orgue Jean-Boizard (1714) / Saint-Michel en Thiérache
Ensemble La Risonanza (enr. 2002)
[6 à 8] Olivier Baumont,
Orgue Jean-Boizard (1714) / Saint-Michel en Thiérache
La Simphonie du Marais, direction Hugo Reyne (enr. 2002)
[9 à 11] Fabio Bonizzoni, orgue et direction
Orgue Jean-Boizard (1714) / Saint-Michel en Thiérache
Ensemble La Risonanza
[12 à 18] Olivier Baumont,
Orgue Moucherel - Montbrun (1741) / Cintegabelle (enr. 2000)
[19 à 22] Orgue Dom Bedos (1748) / Bordeaux (enr. 2013)

CD8

[1 à 3] Olivier Baumont,
Orgue Dom Bedos (1748) / Bordeaux (enr. 2013)
[4 à 8] Olivier Baumont,
Forte-Piano organisé Erard Frères (1791) / Musée de la Musique, Paris (enr. 2013)
[9 à 11] Olivier Baumont,
Orgue Dom Bedos (1748) / Bordeaux
[12] André Isoir,
Orgue Jean-Boizard (1714) / Saint-Michel en Thiérache (enr. 1987)
[13 à 21] François Ménissier,
Orgue Riepp-Callinet-Stiehr (1754-1788-1830/56) Dole [13 à 18]
OrguePoirier-Lieberknecht (1862-64) /Toulouse - La Daurade [19 à 21]
Ensemble Gilles Binchois — Dir. Dominique Vellard [17], [18] (enr. 2000)
-

Композиторы:

Balbastre Claude (1724-1799)
Beauvarlet-Charpentier Jean-Jacques (1734-1794)
Benaut Josse-François-Joseph (mort en 1794)
Boëly Alexandre-Pierre-François (1785-1858)
Boyvin Jacques (ca 1650-1706)
Clérambault Louis-Nicolas (1676-1749)
Corrette Michel (1707-1795)
Couperin Armand-Louis (1727-1789)
Couperin François (1668-1733)
Couperin Gervais-François (1759-1826)
Couperin Louis (ca 1626-1661)
Dandrieu Jean-François (1682-1738)
Daquin Louis-Claude (1694-1772)
Dornel Louis Antoine (1685-1765)
Du Mage Pierre (1674-1751)
Grigny Nicolas (1672-1703)
Guilain Jean Adam (ca 1680-ca 1739)
Jullien Gilles (ca 1653-1703)
Lasceux Guillaume (1740-1831)
Lebègue Nicolas (1631-1702)
Lully Jean-Baptiste (1632-1687)
Marchand Louis (1669-1732)
Nivers Guillaume-Gabriel (ca 1632-1714)
Racquet Charles (1597-1664)
Raison André (ca 1645-1719)
Rameau Jean-Philippe (1683-1764)
Roberday François (1624-1680)
Titelouze Jehan (1563-1633)
-

Логи создания риповCD1

Exact Audio Copy V1.0 beta 3 from 29. August 2011
EAC extraction logfile from 27. November 2014, 20:18
Various / Les Maitres de l'Orgue Francais - CD1 - Recherches et Fantaisies
Used drive : HL-DT-STDVDRAM GH24NSB0 Adapter: 5 ID: 0
Read mode : Secure
Utilize accurate stream : Yes
Defeat audio cache : Yes
Make use of C2 pointers : No
Read offset correction : 6
Overread into Lead-In and Lead-Out : No
Fill up missing offset samples with silence : Yes
Delete leading and trailing silent blocks : No
Null samples used in CRC calculations : Yes
Used interface : Native Win32 interface for Win NT & 2000
Gap handling : Appended to previous track
Used output format : User Defined Encoder
Selected bitrate : 1024 kBit/s
Quality : High
Add ID3 tag : No
Command line compressor : C:\Program Files (x86)\Exact Audio Copy\Flac\flac.exe
Additional command line options : -8 -V -T "ARTIST=%artist%" -T "TITLE=%title%" -T "ALBUM=%albumtitle%" -T "DATE=%year%" -T "TRACKNUMBER=%tracknr%" -T "TOTALTRACKS=%numtracks%" -T "GENRE=%genre%" -T "ALBUMARTIST=%albumartist%" -T "ALBUM ARTIST=%albumartist%" -T "COMMENT=EAC Secure Mode, Test & Copy, AccurateRip, FLAC -8" %source%
TOC of the extracted CD
Track | Start | Length | Start sector | End sector
---------------------------------------------------------
1 | 0:00.00 | 2:34.10 | 0 | 11559
2 | 2:34.10 | 5:46.08 | 11560 | 37517
3 | 8:20.18 | 1:48.63 | 37518 | 45680
4 | 10:09.06 | 3:37.54 | 45681 | 62009
5 | 13:46.60 | 2:05.73 | 62010 | 71457
6 | 15:52.58 | 2:18.15 | 71458 | 81822
7 | 18:10.73 | 2:05.30 | 81823 | 91227
8 | 20:16.28 | 2:41.10 | 91228 | 103312
9 | 22:57.38 | 3:45.38 | 103313 | 120225
10 | 26:43.01 | 3:21.11 | 120226 | 135311
11 | 30:04.12 | 1:43.13 | 135312 | 143049
12 | 31:47.25 | 2:30.73 | 143050 | 154372
13 | 34:18.23 | 3:00.48 | 154373 | 167920
14 | 37:18.71 | 1:35.05 | 167921 | 175050
15 | 38:54.01 | 1:40.02 | 175051 | 182552
16 | 40:34.03 | 2:04.46 | 182553 | 191898
17 | 42:38.49 | 1:52.17 | 191899 | 200315
18 | 44:30.66 | 2:07.47 | 200316 | 209887
19 | 46:38.38 | 2:07.14 | 209888 | 219426
20 | 48:45.52 | 1:37.45 | 219427 | 226746
21 | 50:23.22 | 3:38.58 | 226747 | 243154
22 | 54:02.05 | 4:27.73 | 243155 | 263252
23 | 58:30.03 | 3:00.71 | 263253 | 276823
24 | 61:30.74 | 2:56.09 | 276824 | 290032
Track 1
Filename E:\EAC\1\01 - Louis Couperin - Fantaisie de Violes par Mr Couperin, en Re mineur.wav
Pre-gap length 0:00:02.00
Peak level 32.6 %
Extraction speed 1.0 X
Track quality 100.0 %
Test CRC B0E731E9
Copy CRC B0E731E9
Track not present in AccurateRip database
Copy OK
Track 2
Filename E:\EAC\1\02 - Charles Racquet - Fantaisie (1636).wav
Peak level 66.1 %
Extraction speed 1.2 X
Track quality 100.0 %
Test CRC 0FC79A4D
Copy CRC 0FC79A4D
Track not present in AccurateRip database
Copy OK
Track 3
Filename E:\EAC\1\03 - Louis Couperin - Simphonie par Mr Couperin (dessus, taille et basse de violes).wav
Peak level 51.0 %
Extraction speed 1.1 X
Track quality 100.0 %
Test CRC F3544000
Copy CRC F3544000
Track not present in AccurateRip database
Copy OK
Track 4
Filename E:\EAC\1\04 - Louis Couperin - Chaconne en Sol mineur.wav
Peak level 76.3 %
Extraction speed 1.3 X
Track quality 100.0 %
Test CRC 35420686
Copy CRC 35420686
Track not present in AccurateRip database
Copy OK
Track 5
Filename E:\EAC\1\05 - Louis Couperin - Fantaisie, sur la tierce du Grand Clavier avec le tremblant lent.wav
Peak level 27.9 %
Extraction speed 1.3 X
Track quality 100.0 %
Test CRC 4BBD83CD
Copy CRC 4BBD83CD
Track not present in AccurateRip database
Copy OK
Track 6
Filename E:\EAC\1\06 - Louis Couperin - Fantaisie (en basse).wav
Peak level 16.1 %
Extraction speed 1.3 X
Track quality 100.0 %
Test CRC B27F810F
Copy CRC B27F810F
Track not present in AccurateRip database
Copy OK
Track 7
Filename E:\EAC\1\07 - Louis Couperin - Fantaisie (en quatuor).wav
Peak level 39.0 %
Extraction speed 1.3 X
Track quality 100.0 %
Test CRC 91DB8061
Copy CRC 91DB8061
Track not present in AccurateRip database
Copy OK
Track 8
Filename E:\EAC\1\08 - Louis Couperin - Duo Par Mr Couperin, en Sol mineur (dessus et basse de violes).wav
Peak level 32.4 %
Extraction speed 1.5 X
Track quality 100.0 %
Test CRC CA257BA1
Copy CRC CA257BA1
Track not present in AccurateRip database
Copy OK
Track 9
Filename E:\EAC\1\09 - Louis Couperin - Prelude, autre livre, Grand livre d'orgue.wav
Peak level 70.3 %
Extraction speed 1.6 X
Track quality 100.0 %
Test CRC 6F90D2B7
Copy CRC 6F90D2B7
Track not present in AccurateRip database
Copy OK
Track 10
Filename E:\EAC\1\10 - Louis Couperin - Fantaisie (1651).wav
Peak level 85.1 %
Extraction speed 1.4 X
Track quality 99.9 %
Test CRC B5675A40
Copy CRC B5675A40
Track not present in AccurateRip database
Copy OK
Track 11
Filename E:\EAC\1\11 - Louis Couperin - Fantaisie (a Paris le 15 mai 1656).wav
Peak level 30.3 %
Extraction speed 1.4 X
Track quality 100.0 %
Test CRC 9B4ADC26
Copy CRC 9B4ADC26
Track not present in AccurateRip database
Copy OK
Track 12
Filename E:\EAC\1\12 - Louis Couperin - Fugue renversee (le 15 juillet 1656).wav
Peak level 52.3 %
Extraction speed 1.6 X
Track quality 100.0 %
Test CRC 72E71184
Copy CRC 72E71184
Track not present in AccurateRip database
Copy OK
Track 13
Filename E:\EAC\1\13 - Louis Couperin - Fugue (a Paris, le 22 juillet 1656).wav
Peak level 28.1 %
Extraction speed 1.8 X
Track quality 100.0 %
Test CRC CEBD7FD0
Copy CRC CEBD7FD0
Track not present in AccurateRip database
Copy OK
Track 14
Filename E:\EAC\1\14 - Louis Couperin - Simphonie par Mr Couperin en Re mineur.wav
Peak level 32.9 %
Extraction speed 1.6 X
Track quality 100.0 %
Test CRC A589847C
Copy CRC A589847C
Track not present in AccurateRip database
Copy OK
Track 15
Filename E:\EAC\1\15 - Jehan Titelouze - Magnificat primi toni - Magnificat.wav
Peak level 60.9 %
Extraction speed 1.6 X
Track quality 100.0 %
Test CRC EE629745
Copy CRC EE629745
Track not present in AccurateRip database
Copy OK
Track 16
Filename E:\EAC\1\16 - Jehan Titelouze - Magnificat primi toni - Quia respexit.wav
Peak level 27.9 %
Extraction speed 1.7 X
Track quality 100.0 %
Test CRC 4F17D494
Copy CRC 4F17D494
Track not present in AccurateRip database
Copy OK
Track 17
Filename E:\EAC\1\17 - Jehan Titelouze - Magnificat primi toni - Et misericordia ejus.wav
Peak level 31.6 %
Extraction speed 1.4 X
Track quality 99.9 %
Test CRC E2686A4A
Copy CRC E2686A4A
Track not present in AccurateRip database
Copy OK
Track 18
Filename E:\EAC\1\18 - Jehan Titelouze - Magnificat primi toni - Deposuit potentes.wav
Peak level 43.8 %
Extraction speed 1.8 X
Track quality 100.0 %
Test CRC 1DB80724
Copy CRC 1DB80724
Track not present in AccurateRip database
Copy OK
Track 19
Filename E:\EAC\1\19 - Jehan Titelouze - Magnificat primi toni - Suscepit Israel.wav
Peak level 36.8 %
Extraction speed 1.8 X
Track quality 100.0 %
Test CRC E2935F02
Copy CRC E2935F02
Track not present in AccurateRip database
Copy OK
Track 20
Filename E:\EAC\1\20 - Jehan Titelouze - Magnificat primi toni - Gloria Patri et Filio.wav
Peak level 58.8 %
Extraction speed 1.3 X
Track quality 99.8 %
Test CRC B4345515
Copy CRC B4345515
Track not present in AccurateRip database
Copy OK
Track 21
Filename E:\EAC\1\21 - Francois Roberday - Fugue 9eme et Caprice sur le mesme sujet (2 dessus, taille et basse de violes).wav
Peak level 54.5 %
Extraction speed 1.8 X
Track quality 99.9 %
Test CRC F76EDCD1
Copy CRC F76EDCD1
Track not present in AccurateRip database
Copy OK
Track 22
Filename E:\EAC\1\22 - Francois Roberday - Fugue 10eme (orgue).wav
Peak level 43.1 %
Extraction speed 2.2 X
Track quality 100.0 %
Test CRC A91DDA78
Copy CRC A91DDA78
Track not present in AccurateRip database
Copy OK
Track 23
Filename E:\EAC\1\23 - Francois Roberday - Fugue 11eme (2 dessus, taille et basse de violes).wav
Peak level 73.5 %
Extraction speed 1.8 X
Track quality 99.9 %
Test CRC DC1344BA
Copy CRC DC1344BA
Track not present in AccurateRip database
Copy OK
Track 24
Filename E:\EAC\1\24 - Francois Roberday - Fugue 12eme (orgue).wav
Peak level 98.2 %
Extraction speed 2.2 X
Track quality 100.0 %
Test CRC 706B908A
Copy CRC 706B908A
Track not present in AccurateRip database
Copy OK
None of the tracks are present in the AccurateRip database
No errors occurred
End of status report
==== Log checksum 3C3DCE578A3E09295C6BED0EB95F1D87642E1FB0368FD904A7381E408760203E ====

CD2

Exact Audio Copy V1.0 beta 3 from 29. August 2011
EAC extraction logfile from 27. November 2014, 22:21
Various Artists / Les Maitres de l'Orgue Francais - CD2 - Livres d'Orgue
Used drive : HL-DT-STDVDRAM GH24NSB0 Adapter: 5 ID: 0
Read mode : Secure
Utilize accurate stream : Yes
Defeat audio cache : Yes
Make use of C2 pointers : No
Read offset correction : 6
Overread into Lead-In and Lead-Out : No
Fill up missing offset samples with silence : Yes
Delete leading and trailing silent blocks : No
Null samples used in CRC calculations : Yes
Used interface : Native Win32 interface for Win NT & 2000
Gap handling : Appended to previous track
Used output format : User Defined Encoder
Selected bitrate : 1024 kBit/s
Quality : High
Add ID3 tag : No
Command line compressor : C:\Program Files (x86)\Exact Audio Copy\Flac\flac.exe
Additional command line options : -8 -V -T "ARTIST=%artist%" -T "TITLE=%title%" -T "ALBUM=%albumtitle%" -T "DATE=%year%" -T "TRACKNUMBER=%tracknr%" -T "TOTALTRACKS=%numtracks%" -T "GENRE=%genre%" -T "ALBUMARTIST=%albumartist%" -T "ALBUM ARTIST=%albumartist%" -T "COMMENT=EAC Secure Mode, Test & Copy, AccurateRip, FLAC -8" %source%
TOC of the extracted CD
Track | Start | Length | Start sector | End sector
---------------------------------------------------------
1 | 0:00.00 | 1:21.01 | 0 | 6075
2 | 1:21.01 | 0:21.48 | 6076 | 7698
3 | 1:42.49 | 1:01.20 | 7699 | 12293
4 | 2:43.69 | 0:28.69 | 12294 | 14462
5 | 3:12.63 | 1:56.20 | 14463 | 23182
6 | 5:09.08 | 0:29.66 | 23183 | 25423
7 | 5:38.74 | 1:14.63 | 25424 | 31036
8 | 6:53.62 | 0:33.54 | 31037 | 33565
9 | 7:27.41 | 1:03.47 | 33566 | 38337
10 | 8:31.13 | 0:30.07 | 38338 | 40594
11 | 9:01.20 | 1:11.26 | 40595 | 45945
12 | 10:12.46 | 0:37.32 | 45946 | 48752
13 | 10:50.03 | 1:30.27 | 48753 | 55529
14 | 12:20.30 | 5:23.42 | 55530 | 79796
15 | 17:43.72 | 2:59.33 | 79797 | 93254
16 | 20:43.30 | 4:49.18 | 93255 | 114947
17 | 25:32.48 | 3:15.46 | 114948 | 129618
18 | 28:48.19 | 2:01.54 | 129619 | 138747
19 | 30:49.73 | 1:46.24 | 138748 | 146721
20 | 32:36.22 | 5:35.61 | 146722 | 171907
21 | 38:12.08 | 1:01.48 | 171908 | 176530
22 | 39:13.56 | 0:51.37 | 176531 | 180392
23 | 40:05.18 | 2:25.67 | 180393 | 191334
24 | 42:31.10 | 1:15.36 | 191335 | 196995
25 | 43:46.46 | 1:52.45 | 196996 | 205440
26 | 45:39.16 | 0:58.35 | 205441 | 209825
27 | 46:37.51 | 1:11.30 | 209826 | 215180
28 | 47:49.06 | 2:26.10 | 215181 | 226140
29 | 50:15.16 | 6:11.18 | 226141 | 253983
30 | 56:26.34 | 2:04.27 | 253984 | 263310
31 | 58:30.61 | 3:38.60 | 263311 | 279720
32 | 62:09.46 | 1:31.27 | 279721 | 286572
33 | 63:40.73 | 2:10.22 | 286573 | 296344
Track 1
Filename E:\EAC\1\01 - Guillaume-Gabriel Nivers - Magnificat anima mea.wav
Pre-gap length 0:00:02.00
Peak level 49.2 %
Extraction speed 0.6 X
Track quality 99.8 %
Test CRC 30155F23
Copy CRC 30155F23
Track not present in AccurateRip database
Copy OK
Track 2
Filename E:\EAC\1\02 - Guillaume-Gabriel Nivers - Et exultavit spiritus meus in Deo salutari meo.wav
Peak level 29.5 %
Extraction speed 0.4 X
Track quality 100.0 %
Test CRC 34B6B76B
Copy CRC 34B6B76B
Track not present in AccurateRip database
Copy OK
Track 3
Filename E:\EAC\1\03 - Guillaume-Gabriel Nivers - Quia respexit, Duo.wav
Peak level 28.4 %
Extraction speed 0.8 X
Track quality 100.0 %
Test CRC 8C85994B
Copy CRC 8C85994B
Track not present in AccurateRip database
Copy OK
Track 4
Filename E:\EAC\1\04 - Guillaume-Gabriel Nivers - Quia fecit mihi magna qui potens est, et sanctum nomen ejus.wav
Peak level 25.3 %
Extraction speed 0.5 X
Track quality 100.0 %
Test CRC 03EA4C74
Copy CRC 03EA4C74
Track not present in AccurateRip database
Copy OK
Track 5
Filename E:\EAC\1\05 - Guillaume-Gabriel Nivers - Et misericordia, Recit de Cromhorne.wav
Peak level 18.9 %
Extraction speed 1.0 X
Track quality 100.0 %
Test CRC 519ECF21
Copy CRC 519ECF21
Track not present in AccurateRip database
Copy OK
Track 6
Filename E:\EAC\1\06 - Guillaume-Gabriel Nivers - Fecit potentiam in brachio suo, dispersit superbos mente cordis sui.wav
Peak level 34.8 %
Extraction speed 0.4 X
Track quality 99.6 %
Test CRC 12F2AF8B
Copy CRC 12F2AF8B
Track not present in AccurateRip database
Copy OK
Track 7
Filename E:\EAC\1\07 - Guillaume-Gabriel Nivers - Deposuit potentes, Basse de Trompette.wav
Peak level 39.3 %
Extraction speed 0.9 X
Track quality 100.0 %
Test CRC 42389BF3
Copy CRC 42389BF3
Track not present in AccurateRip database
Copy OK
Track 8
Filename E:\EAC\1\08 - Guillaume-Gabriel Nivers - Esurientes implevit bonis et divites dimisit inanes (plain-chant de Nivers).wav
Peak level 31.6 %
Extraction speed 0.6 X
Track quality 100.0 %
Test CRC D82DF1F0
Copy CRC D82DF1F0
Track not present in AccurateRip database
Copy OK
Track 9
Filename E:\EAC\1\09 - Guillaume-Gabriel Nivers - Suscepit Israel, Cornet.wav
Peak level 23.8 %
Extraction speed 0.9 X
Track quality 100.0 %
Test CRC E55CC545
Copy CRC E55CC545
Track not present in AccurateRip database
Copy OK
Track 10
Filename E:\EAC\1\10 - Guillaume-Gabriel Nivers - Sicut locutus est ad patres nostros, Abraham et semini ejus in saecula.wav
Peak level 38.9 %
Extraction speed 0.6 X
Track quality 100.0 %
Test CRC F321A707
Copy CRC F321A707
Track not present in AccurateRip database
Copy OK
Track 11
Filename E:\EAC\1\11 - Guillaume-Gabriel Nivers - Gloria Patri, Grand Jeu.wav
Peak level 53.0 %
Extraction speed 0.7 X
Track quality 99.8 %
Test CRC D79301FD
Copy CRC D79301FD
Track not present in AccurateRip database
Copy OK
Track 12
Filename E:\EAC\1\12 - Guillaume-Gabriel Nivers - Sicut erat in principio, et nunc et semper, et in saecula sasculorum.wav
Peak level 30.9 %
Extraction speed 0.7 X
Track quality 100.0 %
Test CRC 3017AE60
Copy CRC 3017AE60
Track not present in AccurateRip database
Copy OK
Track 13
Filename E:\EAC\1\13 - Guillaume-Gabriel Nivers - Amen, Plein Jeu.wav
Peak level 49.1 %
Extraction speed 1.1 X
Track quality 100.0 %
Test CRC 7E64D625
Copy CRC 7E64D625
Track not present in AccurateRip database
Copy OK
Track 14
Filename E:\EAC\1\14 - Guillaume-Gabriel Nivers - Messe - Offerte en fugue et Dialogue.wav
Peak level 72.9 %
Extraction speed 1.5 X
Track quality 100.0 %
Test CRC D7318786
Copy CRC D7318786
Track not present in AccurateRip database
Copy OK
Track 15
Filename E:\EAC\1\15 - Guillaume-Gabriel Nivers - Messe - Motet - Venite, adoremus.wav
Peak level 50.3 %
Extraction speed 1.5 X
Track quality 100.0 %
Test CRC 379883AF
Copy CRC 379883AF
Track not present in AccurateRip database
Copy OK
Track 16
Filename E:\EAC\1\16 - Guillaume-Gabriel Nivers - Messe - Benedictus, Recit de Cromhorne.wav
Peak level 38.0 %
Extraction speed 1.6 X
Track quality 100.0 %
Test CRC 2FBCF70D
Copy CRC 2FBCF70D
Track not present in AccurateRip database
Copy OK
Track 17
Filename E:\EAC\1\17 - Nicolas Lebegue - Vent sancte Spiritus, motet pour le Saint Esprit.wav
Peak level 67.3 %
Extraction speed 1.6 X
Track quality 100.0 %
Test CRC AC172399
Copy CRC AC172399
Track not present in AccurateRip database
Copy OK
Track 18
Filename E:\EAC\1\18 - Nicolas Lebegue - Elevation en Gb.wav
Peak level 18.4 %
Extraction speed 1.5 X
Track quality 100.0 %
Test CRC 5F2212BB
Copy CRC 5F2212BB
Track not present in AccurateRip database
Copy OK
Track 19
Filename E:\EAC\1\19 - Nicolas Lebegue - O Crux ave, motet a 2 dessus pour la Semaine Sainte.wav
Peak level 90.2 %
Extraction speed 1.5 X
Track quality 100.0 %
Test CRC 5BEA5DA5
Copy CRC 5BEA5DA5
Track not present in AccurateRip database
Copy OK
Track 20
Filename E:\EAC\1\20 - Jacques Boyvin - Grand Dialogue.wav
Peak level 95.5 %
Extraction speed 1.9 X
Track quality 100.0 %
Test CRC 43DBFE3F
Copy CRC 43DBFE3F
Track not present in AccurateRip database
Copy OK
Track 21
Filename E:\EAC\1\21 - Andre Raison - Messe du premier ton - Sanctus.wav
Peak level 43.7 %
Extraction speed 1.3 X
Track quality 100.0 %
Test CRC AA25DA73
Copy CRC AA25DA73
Track not present in AccurateRip database
Copy OK
Track 22
Filename E:\EAC\1\22 - Andre Raison - Messe du premier ton - Second Sanctus.wav
Peak level 26.2 %
Extraction speed 1.2 X
Track quality 100.0 %
Test CRC 53373F05
Copy CRC 53373F05
Track not present in AccurateRip database
Copy OK
Track 23
Filename E:\EAC\1\23 - Andre Raison - Messe du premier ton - Benedictus.wav
Peak level 22.9 %
Extraction speed 1.8 X
Track quality 100.0 %
Test CRC 041E7057
Copy CRC 041E7057
Track not present in AccurateRip database
Copy OK
Track 24
Filename E:\EAC\1\24 - Andre Raison - Messe du premier ton - Elevation.wav
Peak level 43.5 %
Extraction speed 1.5 X
Track quality 100.0 %
Test CRC F18150E0
Copy CRC F18150E0
Track not present in AccurateRip database
Copy OK
Track 25
Filename E:\EAC\1\25 - Andre Raison - Messe du premier ton - Agnus Dei.wav
Peak level 65.1 %
Extraction speed 1.7 X
Track quality 100.0 %
Test CRC 89B4E9F8
Copy CRC 89B4E9F8
Track not present in AccurateRip database
Copy OK
Track 26
Filename E:\EAC\1\26 - Andre Raison - Messe du premier ton - Second Agnus (Duo).wav
Peak level 13.3 %
Extraction speed 1.4 X
Track quality 100.0 %
Test CRC C9B1772E
Copy CRC C9B1772E
Track not present in AccurateRip database
Copy OK
Track 27
Filename E:\EAC\1\27 - Andre Raison - Messe du premier ton - Deo Gratias.wav
Peak level 40.8 %
Extraction speed 1.1 X
Track quality 99.8 %
Test CRC C3FFCA61
Copy CRC C3FFCA61
Track not present in AccurateRip database
Copy OK
Track 28
Filename E:\EAC\1\28 - Nicolas Lebegue - Regina coeli, motet de la Sainte Vierge, pour le temps de Paques.wav
Peak level 65.9 %
Extraction speed 1.9 X
Track quality 100.0 %
Test CRC 36540749
Copy CRC 36540749
Track not present in AccurateRip database
Copy OK
Track 29
Filename E:\EAC\1\29 - Nicolas Lebegue - Offertoire sur le chant d'O filii et filiae & chant alterne.wav
Peak level 72.6 %
Extraction speed 2.3 X
Track quality 100.0 %
Test CRC 71B423DA
Copy CRC 71B423DA
Track not present in AccurateRip database
Copy OK
Track 30
Filename E:\EAC\1\30 - Gilles Jullien - Livre d'orgue - Prelude.wav
Peak level 64.2 %
Extraction speed 2.0 X
Track quality 100.0 %
Test CRC 4DAE0B35
Copy CRC 4DAE0B35
Track not present in AccurateRip database
Copy OK
Track 31
Filename E:\EAC\1\31 - Gilles Jullien - Livre d'orgue - Fugue renversee.wav
Peak level 37.4 %
Extraction speed 1.9 X
Track quality 99.9 %
Test CRC B897FA1A
Copy CRC B897FA1A
Track not present in AccurateRip database
Copy OK
Track 32
Filename E:\EAC\1\32 - Gilles Jullien - Livre d'orgue - Dessus de tierce ou chromorne.wav
Peak level 24.5 %
Extraction speed 1.9 X
Track quality 100.0 %
Test CRC 08C21E32
Copy CRC 08C21E32
Track not present in AccurateRip database
Copy OK
Track 33
Filename E:\EAC\1\33 - Gilles Jullien - Livre d'orgue - Dialogue.wav
Peak level 86.9 %
Extraction speed 2.1 X
Track quality 100.0 %
Test CRC 97112268
Copy CRC 97112268
Track not present in AccurateRip database
Copy OK
None of the tracks are present in the AccurateRip database
No errors occurred
End of status report
==== Log checksum FC9D16474F1DACBB8D2F8BD5E7C7C394884B150D056FB3DD5DD741F8C679D01C ====

CD3

Exact Audio Copy V1.0 beta 3 from 29. August 2011
EAC extraction logfile from 29. November 2014, 14:22
Various Artists / Les Maitres de l'Orgue Francais - CD3 - Apogee Classique
Used drive : HL-DT-STDVDRAM GH24NSB0 Adapter: 5 ID: 0
Read mode : Secure
Utilize accurate stream : Yes
Defeat audio cache : Yes
Make use of C2 pointers : No
Read offset correction : 6
Overread into Lead-In and Lead-Out : No
Fill up missing offset samples with silence : Yes
Delete leading and trailing silent blocks : No
Null samples used in CRC calculations : Yes
Used interface : Native Win32 interface for Win NT & 2000
Gap handling : Appended to previous track
Used output format : User Defined Encoder
Selected bitrate : 1024 kBit/s
Quality : High
Add ID3 tag : No
Command line compressor : C:\Program Files (x86)\Exact Audio Copy\Flac\flac.exe
Additional command line options : -8 -V -T "ARTIST=%artist%" -T "TITLE=%title%" -T "ALBUM=%albumtitle%" -T "DATE=%year%" -T "TRACKNUMBER=%tracknr%" -T "TOTALTRACKS=%numtracks%" -T "GENRE=%genre%" -T "ALBUMARTIST=%albumartist%" -T "ALBUM ARTIST=%albumartist%" -T "COMMENT=EAC Secure Mode, Test & Copy, AccurateRip, FLAC -8" %source%
TOC of the extracted CD
Track | Start | Length | Start sector | End sector
---------------------------------------------------------
1 | 0:00.00 | 3:43.58 | 0 | 16782
2 | 3:43.58 | 8:00.41 | 16783 | 52823
3 | 11:44.24 | 1:14.62 | 52824 | 58435
4 | 12:59.11 | 1:05.63 | 58436 | 63373
5 | 14:04.74 | 1:45.19 | 63374 | 71267
6 | 15:50.18 | 2:52.70 | 71268 | 84237
7 | 18:43.13 | 1:57.44 | 84238 | 93056
8 | 20:40.57 | 3:04.13 | 93057 | 106869
9 | 23:44.70 | 2:52.24 | 106870 | 119793
10 | 26:37.19 | 2:34.66 | 119794 | 131409
11 | 29:12.10 | 1:40.09 | 131410 | 138918
12 | 30:52.19 | 8:00.01 | 138919 | 174919
13 | 38:52.20 | 6:29.22 | 174920 | 204116
14 | 45:21.42 | 10:00.72 | 204117 | 249188
15 | 55:22.39 | 5:44.73 | 249189 | 275061
16 | 61:07.37 | 2:17.66 | 275062 | 285402
17 | 63:25.28 | 2:14.36 | 285403 | 295488
18 | 65:39.64 | 3:04.07 | 295489 | 309295
19 | 68:43.71 | 2:42.24 | 309296 | 321469
20 | 71:26.20 | 3:24.68 | 321470 | 336837
Track 1
Filename E:\EAC\1\01 - Jean-Baptiste Lully - Grand Jeu, en Sol majeur Cadmus et Hermione - Ouverture.wav
Pre-gap length 0:00:02.00
Peak level 97.7 %
Extraction speed 1.0 X
Track quality 99.9 %
Test CRC BEDA4B98
Copy CRC BEDA4B98
Track not present in AccurateRip database
Copy OK
Track 2
Filename E:\EAC\1\02 - Francois Couperin - Motet - Dialogues inter Jesum et Hominem, a 2 voix.wav
Peak level 41.1 %
Extraction speed 1.4 X
Track quality 100.0 %
Test CRC B7D1C837
Copy CRC B7D1C837
Track not present in AccurateRip database
Copy OK
Track 3
Filename E:\EAC\1\03 - Francois Couperin - Messe - Plein Jeu - Et in Terra pax.wav
Peak level 41.9 %
Extraction speed 1.1 X
Track quality 100.0 %
Test CRC 80EC201C
Copy CRC 80EC201C
Track not present in AccurateRip database
Copy OK
Track 4
Filename E:\EAC\1\04 - Francois Couperin - Messe - Petitte fugue sur le Chromorne.wav
Peak level 20.1 %
Extraction speed 1.1 X
Track quality 100.0 %
Test CRC EF271D0F
Copy CRC EF271D0F
Track not present in AccurateRip database
Copy OK
Track 5
Filename E:\EAC\1\05 - Francois Couperin - Messe - Duo sur les Tierces.wav
Peak level 16.2 %
Extraction speed 1.0 X
Track quality 99.8 %
Test CRC 925AAFC8
Copy CRC 925AAFC8
Track not present in AccurateRip database
Copy OK
Track 6
Filename E:\EAC\1\06 - Francois Couperin - Messe - Dialogue sur les Trompettes, Clairon et Tierces.wav
Peak level 28.8 %
Extraction speed 1.5 X
Track quality 100.0 %
Test CRC 68CC6E62
Copy CRC 68CC6E62
Track not present in AccurateRip database
Copy OK
Track 7
Filename E:\EAC\1\07 - Francois Couperin - Messe - Trio a 2 dessus de Chromhorne et la basse de Tierce.wav
Peak level 16.7 %
Extraction speed 1.4 X
Track quality 100.0 %
Test CRC 0848D64B
Copy CRC 0848D64B
Track not present in AccurateRip database
Copy OK
Track 8
Filename E:\EAC\1\08 - Francois Couperin - Messe - Tierce en Taille.wav
Peak level 23.3 %
Extraction speed 1.6 X
Track quality 100.0 %
Test CRC 4E52E690
Copy CRC 4E52E690
Track not present in AccurateRip database
Copy OK
Track 9
Filename E:\EAC\1\09 - Francois Couperin - Messe - Dialogue sur la Voix humaine.wav
Peak level 12.0 %
Extraction speed 1.4 X
Track quality 99.9 %
Test CRC BDD54A18
Copy CRC BDD54A18
Track not present in AccurateRip database
Copy OK
Track 10
Filename E:\EAC\1\10 - Francois Couperin - Messe - Dialogue en trio du Cornet et de la Tierce.wav
Peak level 20.9 %
Extraction speed 1.7 X
Track quality 100.0 %
Test CRC D6B59DA9
Copy CRC D6B59DA9
Track not present in AccurateRip database
Copy OK
Track 11
Filename E:\EAC\1\11 - Francois Couperin - Messe - Dialogue sur les Grands jeux.wav
Peak level 45.0 %
Extraction speed 1.5 X
Track quality 100.0 %
Test CRC 7EA7F7E4
Copy CRC 7EA7F7E4
Track not present in AccurateRip database
Copy OK
Track 12
Filename E:\EAC\1\12 - Francois Couperin - Messe - Offertoire sur les Grands jeux.wav
Peak level 55.8 %
Extraction speed 2.0 X
Track quality 100.0 %
Test CRC C0B8E193
Copy CRC C0B8E193
Track not present in AccurateRip database
Copy OK
Track 13
Filename E:\EAC\1\13 - Francois Couperin - Motet - Precatio ad Deum, a 3 voix.wav
Peak level 59.3 %
Extraction speed 2.2 X
Track quality 100.0 %
Test CRC DDA12A84
Copy CRC DDA12A84
Track not present in AccurateRip database
Copy OK
Track 14
Filename E:\EAC\1\14 - Louis Marchand - Livre III - Grand dialogue.wav
Peak level 67.0 %
Extraction speed 2.4 X
Track quality 100.0 %
Test CRC 6DF42292
Copy CRC 6DF42292
Track not present in AccurateRip database
Copy OK
Track 15
Filename E:\EAC\1\15 - Francois Couperin - Motet - Usquequo Domine, a voix seule.wav
Peak level 58.4 %
Extraction speed 2.2 X
Track quality 99.9 %
Test CRC D1861A3A
Copy CRC D1861A3A
Track not present in AccurateRip database
Copy OK
Track 16
Filename E:\EAC\1\16 - Nicolas de Grigny - Hymne Veni Creator - Veni Creator, en Taille a 5.wav
Peak level 58.5 %
Extraction speed 2.2 X
Track quality 100.0 %
Test CRC D86DA635
Copy CRC D86DA635
Track not present in AccurateRip database
Copy OK
Track 17
Filename E:\EAC\1\17 - Nicolas de Grigny - Hymne Veni Creator - Fugue a 5.wav
Peak level 36.9 %
Extraction speed 2.1 X
Track quality 100.0 %
Test CRC 6F6B764F
Copy CRC 6F6B764F
Track not present in AccurateRip database
Copy OK
Track 18
Filename E:\EAC\1\18 - Nicolas de Grigny - Hymne Veni Creator - Duo.wav
Peak level 31.9 %
Extraction speed 2.3 X
Track quality 100.0 %
Test CRC A3843CC5
Copy CRC A3843CC5
Track not present in AccurateRip database
Copy OK
Track 19
Filename E:\EAC\1\19 - Nicolas de Grigny - Hymne Veni Creator - Recit de Cromorne.wav
Peak level 15.6 %
Extraction speed 1.9 X
Track quality 99.9 %
Test CRC 08133207
Copy CRC 08133207
Track not present in AccurateRip database
Copy OK
Track 20
Filename E:\EAC\1\20 - Nicolas de Grigny - Hymne Veni Creator - Dialogue sur les Grands Jeux.wav
Peak level 69.8 %
Extraction speed 2.5 X
Track quality 100.0 %
Test CRC 26BF20E6
Copy CRC 26BF20E6
Track not present in AccurateRip database
Copy OK
None of the tracks are present in the AccurateRip database
No errors occurred
End of status report
==== Log checksum C8723F79A4576090C8AA784474C6DFB217B0AA58AA8824683F1380F905891D79 ====

CD4

Exact Audio Copy V1.0 beta 3 from 29. August 2011
EAC extraction logfile from 29. November 2014, 15:26
Various Artists / Les Maitres de l'Orgue Francais - CD4 - Messe et Suites
Used drive : HL-DT-STDVDRAM GH24NSB0 Adapter: 5 ID: 0
Read mode : Secure
Utilize accurate stream : Yes
Defeat audio cache : Yes
Make use of C2 pointers : No
Read offset correction : 6
Overread into Lead-In and Lead-Out : No
Fill up missing offset samples with silence : Yes
Delete leading and trailing silent blocks : No
Null samples used in CRC calculations : Yes
Used interface : Native Win32 interface for Win NT & 2000
Gap handling : Appended to previous track
Used output format : User Defined Encoder
Selected bitrate : 1024 kBit/s
Quality : High
Add ID3 tag : No
Command line compressor : C:\Program Files (x86)\Exact Audio Copy\Flac\flac.exe
Additional command line options : -8 -V -T "ARTIST=%artist%" -T "TITLE=%title%" -T "ALBUM=%albumtitle%" -T "DATE=%year%" -T "TRACKNUMBER=%tracknr%" -T "TOTALTRACKS=%numtracks%" -T "GENRE=%genre%" -T "ALBUMARTIST=%albumartist%" -T "ALBUM ARTIST=%albumartist%" -T "COMMENT=EAC Secure Mode, Test & Copy, AccurateRip, FLAC -8" %source%
TOC of the extracted CD
Track | Start | Length | Start sector | End sector
---------------------------------------------------------
1 | 0:00.00 | 1:23.31 | 0 | 6255
2 | 1:23.31 | 1:29.00 | 6256 | 12930
3 | 2:52.31 | 2:15.36 | 12931 | 23091
4 | 5:07.67 | 3:04.66 | 23092 | 36957
5 | 8:12.58 | 4:57.23 | 36958 | 59255
6 | 13:10.06 | 2:58.61 | 59256 | 72666
7 | 16:08.67 | 2:57.48 | 72667 | 85989
8 | 19:06.40 | 2:18.19 | 85990 | 96358
9 | 21:24.59 | 3:02.65 | 96359 | 110073
10 | 24:27.49 | 7:02.65 | 110074 | 141788
11 | 31:30.39 | 2:30.24 | 141789 | 153062
12 | 34:00.63 | 1:27.73 | 153063 | 159660
13 | 35:28.61 | 1:24.16 | 159661 | 165976
14 | 36:53.02 | 1:57.62 | 165977 | 174813
15 | 38:50.64 | 2:06.05 | 174814 | 184268
16 | 40:56.69 | 1:50.16 | 184269 | 192534
17 | 42:47.10 | 1:33.72 | 192535 | 199581
18 | 44:21.07 | 2:23.50 | 199582 | 210356
19 | 46:44.57 | 1:51.44 | 210357 | 218725
20 | 48:36.26 | 1:58.19 | 218726 | 227594
21 | 50:34.45 | 3:30.63 | 227595 | 243407
22 | 54:05.33 | 2:02.18 | 243408 | 252575
23 | 56:07.51 | 2:53.43 | 252576 | 265593
24 | 59:01.19 | 1:49.56 | 265594 | 273824
25 | 60:51.00 | 3:13.19 | 273825 | 288318
Track 1
Filename E:\EAC\1\01 - Nicolas de Grigny - Messe - Et in Terra Pax a 5.wav
Pre-gap length 0:00:02.00
Peak level 62.4 %
Extraction speed 0.8 X
Track quality 100.0 %
Test CRC BF1024FE
Copy CRC BF1024FE
Track not present in AccurateRip database
Copy OK
Track 2
Filename E:\EAC\1\02 - Nicolas de Grigny - Messe - Fugue.wav
Peak level 23.5 %
Extraction speed 0.9 X
Track quality 100.0 %
Test CRC BAA4D25C
Copy CRC BAA4D25C
Track not present in AccurateRip database
Copy OK
Track 3
Filename E:\EAC\1\03 - Nicolas de Grigny - Messe - Duo.wav
Peak level 25.5 %
Extraction speed 1.0 X
Track quality 100.0 %
Test CRC 45F86EC6
Copy CRC 45F86EC6
Track not present in AccurateRip database
Copy OK
Track 4
Filename E:\EAC\1\04 - Nicolas de Grigny - Messe - Basse de trompette ou de Cromorne.wav
Peak level 35.9 %
Extraction speed 1.2 X
Track quality 100.0 %
Test CRC 3CF56D73
Copy CRC 3CF56D73
Track not present in AccurateRip database
Copy OK
Track 5
Filename E:\EAC\1\05 - Nicolas de Grigny - Messe - Recit de Tierce en taille.wav
Peak level 34.2 %
Extraction speed 1.4 X
Track quality 100.0 %
Test CRC 1ACA428F
Copy CRC 1ACA428F
Track not present in AccurateRip database
Copy OK
Track 6
Filename E:\EAC\1\06 - Nicolas de Grigny - Messe - Dialogue.wav
Peak level 33.9 %
Extraction speed 1.4 X
Track quality 100.0 %
Test CRC 6B6F4490
Copy CRC 6B6F4490
Track not present in AccurateRip database
Copy OK
Track 7
Filename E:\EAC\1\07 - Nicolas de Grigny - Messe - Fugue a 5.wav
Peak level 39.6 %
Extraction speed 1.5 X
Track quality 99.9 %
Test CRC BBA98FE8
Copy CRC BBA98FE8
Track not present in AccurateRip database
Copy OK
Track 8
Filename E:\EAC\1\08 - Nicolas de Grigny - Messe - Trio.wav
Peak level 18.6 %
Extraction speed 5.8 X
Track quality 100.0 %
Test CRC A79EDEA9
Copy CRC A79EDEA9
Track not present in AccurateRip database
Copy OK
Track 9
Filename E:\EAC\1\09 - Nicolas de Grigny - Messe - Dialogue.wav
Peak level 76.0 %
Extraction speed 6.1 X
Track quality 100.0 %
Test CRC 4033DDFD
Copy CRC 4033DDFD
Track not present in AccurateRip database
Copy OK
Track 10
Filename E:\EAC\1\10 - Nicolas de Grigny - Messe - Offertoire sur les Grands Jeux.wav
Peak level 66.8 %
Extraction speed 7.3 X
Track quality 100.0 %
Test CRC 8E0282B8
Copy CRC 8E0282B8
Track not present in AccurateRip database
Copy OK
Track 11
Filename E:\EAC\1\11 - Jean Adam Guilain - Suite pour le Magnificat - Suite du 1er ton - Plein-Jeu.wav
Peak level 78.4 %
Extraction speed 6.4 X
Track quality 100.0 %
Test CRC E67595C8
Copy CRC E67595C8
Track not present in AccurateRip database
Copy OK
Track 12
Filename E:\EAC\1\12 - Jean Adam Guilain - Suite pour le Magnificat - Suite du 1er ton - Trio.wav
Peak level 29.7 %
Extraction speed 4.0 X
Track quality 99.8 %
Test CRC F3D98F47
Copy CRC F3D98F47
Track not present in AccurateRip database
Copy OK
Track 13
Filename E:\EAC\1\13 - Jean Adam Guilain - Suite pour le Magnificat - Suite du 1er ton - Duo.wav
Peak level 37.3 %
Extraction speed 5.8 X
Track quality 100.0 %
Test CRC 578F55B8
Copy CRC 578F55B8
Track not present in AccurateRip database
Copy OK
Track 14
Filename E:\EAC\1\14 - Jean Adam Guilain - Suite pour le Magnificat - Suite du 1er ton - Basse de trompette.wav
Peak level 59.6 %
Extraction speed 4.8 X
Track quality 99.9 %
Test CRC E77DBF10
Copy CRC E77DBF10
Track not present in AccurateRip database
Copy OK
Track 15
Filename E:\EAC\1\15 - Jean Adam Guilain - Suite pour le Magnificat - Suite du 1er ton - Recit.wav
Peak level 34.3 %
Extraction speed 6.7 X
Track quality 100.0 %
Test CRC 09C16D17
Copy CRC 09C16D17
Track not present in AccurateRip database
Copy OK
Track 16
Filename E:\EAC\1\16 - Jean Adam Guilain - Suite pour le Magnificat - Suite du 1er ton - Dialogue.wav
Peak level 88.8 %
Extraction speed 4.7 X
Track quality 99.9 %
Test CRC 4D194A93
Copy CRC 4D194A93
Track not present in AccurateRip database
Copy OK
Track 17
Filename E:\EAC\1\17 - Jean Adam Guilain - Suite pour le Magnificat - Suite du 1er ton - Petit Plein Jeu.wav
Peak level 59.5 %
Extraction speed 4.4 X
Track quality 99.8 %
Test CRC 26A4CAA4
Copy CRC 26A4CAA4
Track not present in AccurateRip database
Copy OK
Track 18
Filename E:\EAC\1\18 - Pierre du Mage - 1er Livre d'Orgue - Suite du 1er ton - Plein Jeu.wav
Peak level 62.0 %
Extraction speed 7.1 X
Track quality 100.0 %
Test CRC 1F005318
Copy CRC 1F005318
Track not present in AccurateRip database
Copy OK
Track 19
Filename E:\EAC\1\19 - Pierre du Mage - 1er Livre d'Orgue - Suite du 1er ton - Fugue.wav
Peak level 64.1 %
Extraction speed 6.8 X
Track quality 100.0 %
Test CRC 2F8C72C0
Copy CRC 2F8C72C0
Track not present in AccurateRip database
Copy OK
Track 20
Filename E:\EAC\1\20 - Pierre du Mage - 1er Livre d'Orgue - Suite du 1er ton - Trio.wav
Peak level 25.4 %
Extraction speed 7.2 X
Track quality 100.0 %
Test CRC A480814B
Copy CRC A480814B
Track not present in AccurateRip database
Copy OK
Track 21
Filename E:\EAC\1\21 - Pierre du Mage - 1er Livre d'Orgue - Suite du 1er ton - Tierce en taille.wav
Peak level 42.2 %
Extraction speed 6.5 X
Track quality 99.9 %
Test CRC FC9EBF5D
Copy CRC FC9EBF5D
Track not present in AccurateRip database
Copy OK
Track 22
Filename E:\EAC\1\22 - Pierre du Mage - 1er Livre d'Orgue - Suite du 1er ton - Basse de trompette.wav
Peak level 63.0 %
Extraction speed 7.5 X
Track quality 100.0 %
Test CRC D2946BC0
Copy CRC D2946BC0
Track not present in AccurateRip database
Copy OK
Track 23
Filename E:\EAC\1\23 - Pierre du Mage - 1er Livre d'Orgue - Suite du 1er ton - Recit.wav
Peak level 21.1 %
Extraction speed 7.9 X
Track quality 100.0 %
Test CRC E54F9D7E
Copy CRC E54F9D7E
Track not present in AccurateRip database
Copy OK
Track 24
Filename E:\EAC\1\24 - Pierre du Mage - 1er Livre d'Orgue - Suite du 1er ton - Duo.wav
Peak level 26.0 %
Extraction speed 7.4 X
Track quality 100.0 %
Test CRC C41647C4
Copy CRC C41647C4
Track not present in AccurateRip database
Copy OK
Track 25
Filename E:\EAC\1\25 - Pierre du Mage - 1er Livre d'Orgue - Suite du 1er ton - Grand jeu.wav
Peak level 88.3 %
Extraction speed 8.3 X
Track quality 100.0 %
Test CRC ECB092A7
Copy CRC ECB092A7
Track not present in AccurateRip database
Copy OK
None of the tracks are present in the AccurateRip database
No errors occurred
End of status report
==== Log checksum 3BB05F84097A9EA02D14C5712FA339CA39C9E82BF69526A4624AE4291E400F75 ====

CD5

Exact Audio Copy V1.0 beta 3 from 29. August 2011
EAC extraction logfile from 29. November 2014, 17:26
Various Artists / Les Maitres de l'Orgue Francais - CD5 - Tribunes et Salons
Used drive : HL-DT-STDVDRAM GH24NSB0 Adapter: 5 ID: 0
Read mode : Secure
Utilize accurate stream : Yes
Defeat audio cache : Yes
Make use of C2 pointers : No
Read offset correction : 6
Overread into Lead-In and Lead-Out : No
Fill up missing offset samples with silence : Yes
Delete leading and trailing silent blocks : No
Null samples used in CRC calculations : Yes
Used interface : Native Win32 interface for Win NT & 2000
Gap handling : Appended to previous track
Used output format : User Defined Encoder
Selected bitrate : 1024 kBit/s
Quality : High
Add ID3 tag : No
Command line compressor : C:\Program Files (x86)\Exact Audio Copy\Flac\flac.exe
Additional command line options : -8 -V -T "ARTIST=%artist%" -T "TITLE=%title%" -T "ALBUM=%albumtitle%" -T "DATE=%year%" -T "TRACKNUMBER=%tracknr%" -T "TOTALTRACKS=%numtracks%" -T "GENRE=%genre%" -T "ALBUMARTIST=%albumartist%" -T "ALBUM ARTIST=%albumartist%" -T "COMMENT=EAC Secure Mode, Test & Copy, AccurateRip, FLAC -8" %source%
TOC of the extracted CD
Track | Start | Length | Start sector | End sector
---------------------------------------------------------
1 | 0:00.00 | 3:40.27 | 0 | 16526
2 | 3:40.27 | 1:54.62 | 16527 | 25138
3 | 5:35.14 | 2:04.48 | 25139 | 34486
4 | 7:39.62 | 2:26.62 | 34487 | 45498
5 | 10:06.49 | 3:28.18 | 45499 | 61116
6 | 13:34.67 | 3:17.06 | 61117 | 75897
7 | 16:51.73 | 1:54.39 | 75898 | 84486
8 | 18:46.37 | 4:03.16 | 84487 | 102727
9 | 22:49.53 | 2:23.05 | 102728 | 113457
10 | 25:12.58 | 1:10.41 | 113458 | 118748
11 | 26:23.24 | 2:21.01 | 118749 | 129324
12 | 28:44.25 | 3:10.21 | 129325 | 143595
13 | 31:54.46 | 1:42.36 | 143596 | 151281
14 | 33:37.07 | 2:26.52 | 151282 | 162283
15 | 36:03.59 | 0:24.12 | 162284 | 164095
16 | 36:27.71 | 1:31.27 | 164096 | 170947
17 | 37:59.23 | 0:26.21 | 170948 | 172918
18 | 38:25.44 | 2:37.24 | 172919 | 184717
19 | 41:02.68 | 0:24.08 | 184718 | 186525
20 | 41:27.01 | 1:32.16 | 186526 | 193441
21 | 42:59.17 | 0:25.19 | 193442 | 195335
22 | 43:24.36 | 3:05.57 | 195336 | 209267
23 | 46:30.18 | 0:28.50 | 209268 | 211417
24 | 46:58.68 | 2:43.54 | 211418 | 223696
25 | 49:42.47 | 0:30.04 | 223697 | 225950
26 | 50:12.51 | 2:10.37 | 225951 | 235737
27 | 52:23.13 | 0:27.27 | 235738 | 237789
28 | 52:50.40 | 1:55.20 | 237790 | 246434
29 | 54:45.60 | 1:06.19 | 246435 | 251403
30 | 55:52.04 | 1:00.29 | 251404 | 255932
31 | 56:52.33 | 1:13.45 | 255933 | 261452
32 | 58:06.03 | 1:25.14 | 261453 | 267841
33 | 59:31.17 | 1:37.16 | 267842 | 275132
34 | 61:08.33 | 1:44.32 | 275133 | 282964
35 | 62:52.65 | 2:23.57 | 282965 | 293746
36 | 65:16.47 | 1:43.69 | 293747 | 301540
37 | 67:00.41 | 2:46.64 | 301541 | 314054
38 | 69:47.30 | 1:00.22 | 314055 | 318576
39 | 70:47.52 | 1:45.30 | 318577 | 326481
40 | 72:33.07 | 1:19.51 | 326482 | 332457
41 | 73:52.58 | 2:02.71 | 332458 | 341678
Track 1
Filename E:\EAC\1\01 - Louis Marchand - Premier Livre - Plein jeu.wav
Pre-gap length 0:00:02.00
Peak level 69.8 %
Extraction speed 1.1 X
Track quality 100.0 %
Test CRC 8DCEC8AF
Copy CRC 8DCEC8AF
Track not present in AccurateRip database
Copy OK
Track 2
Filename E:\EAC\1\02 - Louis Marchand - Premier Livre - Fugue.wav
Peak level 71.9 %
Extraction speed 0.8 X
Track quality 99.9 %
Test CRC 8797E909
Copy CRC 8797E909
Track not present in AccurateRip database
Copy OK
Track 3
Filename E:\EAC\1\03 - Louis Marchand - Premier Livre - Trio.wav
Peak level 37.2 %
Extraction speed 1.2 X
Track quality 100.0 %
Test CRC BE74EF2F
Copy CRC BE74EF2F
Track not present in AccurateRip database
Copy OK
Track 4
Filename E:\EAC\1\04 - Louis Marchand - Premier Livre - Basse de trompette.wav
Peak level 44.9 %
Extraction speed 1.2 X
Track quality 100.0 %
Test CRC FAB944DA
Copy CRC FAB944DA
Track not present in AccurateRip database
Copy OK
Track 5
Filename E:\EAC\1\05 - Louis Marchand - Premier Livre - Quatuor.wav
Peak level 38.6 %
Extraction speed 1.4 X
Track quality 100.0 %
Test CRC 0B714B39
Copy CRC 0B714B39
Track not present in AccurateRip database
Copy OK
Track 6
Filename E:\EAC\1\06 - Louis Marchand - Premier Livre - Tierce en taille.wav
Peak level 49.8 %
Extraction speed 1.5 X
Track quality 100.0 %
Test CRC 9111FAB8
Copy CRC 9111FAB8
Track not present in AccurateRip database
Copy OK
Track 7
Filename E:\EAC\1\07 - Louis Marchand - Premier Livre - Duo.wav
Peak level 38.1 %
Extraction speed 1.1 X
Track quality 99.9 %
Test CRC DCAE3079
Copy CRC DCAE3079
Track not present in AccurateRip database
Copy OK
Track 8
Filename E:\EAC\1\08 - Louis Marchand - Premier Livre - Recit.wav
Peak level 15.4 %
Extraction speed 1.6 X
Track quality 100.0 %
Test CRC 2A793F99
Copy CRC 2A793F99
Track not present in AccurateRip database
Copy OK
Track 9
Filename E:\EAC\1\09 - Louis Marchand - Premier Livre - Tierce en taille.wav
Peak level 57.5 %
Extraction speed 1.3 X
Track quality 99.9 %
Test CRC 2C328580
Copy CRC 2C328580
Track not present in AccurateRip database
Copy OK
Track 10
Filename E:\EAC\1\10 - Louis Marchand - Premier Livre - Basse de trompette ou de cromorne.wav
Peak level 27.4 %
Extraction speed 1.3 X
Track quality 100.0 %
Test CRC 40DC65A8
Copy CRC 40DC65A8
Track not present in AccurateRip database
Copy OK
Track 11
Filename E:\EAC\1\11 - Louis Marchand - Premier Livre - Fond d'orgue.wav
Peak level 79.1 %
Extraction speed 1.6 X
Track quality 100.0 %
Test CRC E0AE0625
Copy CRC E0AE0625
Track not present in AccurateRip database
Copy OK
Track 12
Filename E:\EAC\1\12 - Louis Marchand - Premier Livre - Dialogue.wav
Peak level 81.7 %
Extraction speed 1.8 X
Track quality 100.0 %
Test CRC FF8D265B
Copy CRC FF8D265B
Track not present in AccurateRip database
Copy OK
Track 13
Filename E:\EAC\1\13 - Louis-Nicolas Clerambault - Suite du 2e ton - Beata Dei genitrix, Antienne du Benedictus.wav
Peak level 50.5 %
Extraction speed 1.5 X
Track quality 100.0 %
Test CRC 3A6CA6A8
Copy CRC 3A6CA6A8
Track not present in AccurateRip database
Copy OK
Track 14
Filename E:\EAC\1\14 - Louis-Nicolas Clerambault - Suite du 2e ton - Benedictus Dominus Deus Israel.wav
Peak level 78.4 %
Extraction speed 1.4 X
Track quality 99.9 %
Test CRC 5E72F3C2
Copy CRC 5E72F3C2
Track not present in AccurateRip database
Copy OK
Track 15
Filename E:\EAC\1\15 - Louis-Nicolas Clerambault - Suite du 2e ton - Et erexit cornu salutis nobis.wav
Peak level 29.2 %
Extraction speed 0.8 X
Track quality 100.0 %
Test CRC 10A7CCB9
Copy CRC 10A7CCB9
Track not present in AccurateRip database
Copy OK
Track 16
Filename E:\EAC\1\16 - Louis-Nicolas Clerambault - Suite du 2e ton - Sicut locutus est.wav
Peak level 25.9 %
Extraction speed 1.6 X
Track quality 100.0 %
Test CRC 77F97C3E
Copy CRC 77F97C3E
Track not present in AccurateRip database
Copy OK
Track 17
Filename E:\EAC\1\17 - Louis-Nicolas Clerambault - Suite du 2e ton - Salutem ex inimicis nostris.wav
Peak level 27.1 %
Extraction speed 0.9 X
Track quality 100.0 %
Test CRC 878B3AF6
Copy CRC 878B3AF6
Track not present in AccurateRip database
Copy OK
Track 18
Filename E:\EAC\1\18 - Louis-Nicolas Clerambault - Suite du 2e ton - Ad faciendam misericordiam.wav
Peak level 30.0 %
Extraction speed 1.8 X
Track quality 100.0 %
Test CRC 908C15A2
Copy CRC 908C15A2
Track not present in AccurateRip database
Copy OK
Track 19
Filename E:\EAC\1\19 - Louis-Nicolas Clerambault - Suite du 2e ton - Jusjurandum quod juravit.wav
Peak level 27.0 %
Extraction speed 0.9 X
Track quality 100.0 %
Test CRC 0A49B1AA
Copy CRC 0A49B1AA
Track not present in AccurateRip database
Copy OK
Track 20
Filename E:\EAC\1\20 - Louis-Nicolas Clerambault - Suite du 2e ton - Ut sine timore de manu.wav
Peak level 27.8 %
Extraction speed 1.6 X
Track quality 100.0 %
Test CRC 64F44231
Copy CRC 64F44231
Track not present in AccurateRip database
Copy OK
Track 21
Filename E:\EAC\1\21 - Louis-Nicolas Clerambault - Suite du 2e ton - In sanctitate et justitia.wav
Peak level 25.5 %
Extraction speed 0.6 X
Track quality 99.5 %
Test CRC 8E23AD34
Copy CRC 8E23AD34
Track not present in AccurateRip database
Copy OK
Track 22
Filename E:\EAC\1\22 - Louis-Nicolas Clerambault - Suite du 2e ton - Et tu puer propheta.wav
Peak level 28.3 %
Extraction speed 2.0 X
Track quality 100.0 %
Test CRC 915E4D0C
Copy CRC 915E4D0C
Track not present in AccurateRip database
Copy OK
Track 23
Filename E:\EAC\1\23 - Louis-Nicolas Clerambault - Suite du 2e ton - Ad dandam scientiam.wav
Peak level 31.9 %
Extraction speed 1.0 X
Track quality 100.0 %
Test CRC C05C20F3
Copy CRC C05C20F3
Track not present in AccurateRip database
Copy OK
Track 24
Filename E:\EAC\1\24 - Louis-Nicolas Clerambault - Suite du 2e ton - Per viscera misericordiae.wav
Peak level 21.2 %
Extraction speed 2.0 X
Track quality 100.0 %
Test CRC EDBDF170
Copy CRC EDBDF170
Track not present in AccurateRip database
Copy OK
Track 25
Filename E:\EAC\1\25 - Louis-Nicolas Clerambault - Suite du 2e ton - Illuminare his qui in tenebris.wav
Peak level 22.5 %
Extraction speed 1.1 X
Track quality 100.0 %
Test CRC 832F0419
Copy CRC 832F0419
Track not present in AccurateRip database
Copy OK
Track 26
Filename E:\EAC\1\26 - Louis-Nicolas Clerambault - Suite du 2e ton - Gloria patri.wav
Peak level 93.3 %
Extraction speed 1.6 X
Track quality 99.9 %
Test CRC 00D58453
Copy CRC 00D58453
Track not present in AccurateRip database
Copy OK
Track 27
Filename E:\EAC\1\27 - Louis-Nicolas Clerambault - Suite du 2e ton - Sicut erat... Amen.wav
Peak level 20.3 %
Extraction speed 1.0 X
Track quality 100.0 %
Test CRC 9FD082F6
Copy CRC 9FD082F6
Track not present in AccurateRip database
Copy OK
Track 28
Filename E:\EAC\1\28 - Louis-Nicolas Clerambault - Suite du 2e ton - Beata Dei genitrix - Antienne.wav
Peak level 45.9 %
Extraction speed 1.9 X
Track quality 100.0 %
Test CRC 2564AE8C
Copy CRC 2564AE8C
Track not present in AccurateRip database
Copy OK
Track 29
Filename E:\EAC\1\29 - Louis Antoine Dornel - Suite d'orgue en Re - Prelude.wav
Peak level 68.8 %
Extraction speed 1.7 X
Track quality 100.0 %
Test CRC 6F9F7452
Copy CRC 6F9F7452
Track not present in AccurateRip database
Copy OK
Track 30
Filename E:\EAC\1\30 - Louis Antoine Dornel - Suite d'orgue en Re - Fugue.wav
Peak level 69.1 %
Extraction speed 1.1 X
Track quality 99.8 %
Test CRC 1E63807E
Copy CRC 1E63807E
Track not present in AccurateRip database
Copy OK
Track 31
Filename E:\EAC\1\31 - Louis Antoine Dornel - Suite d'orgue en Re - Duo.wav
Peak level 33.5 %
Extraction speed 1.7 X
Track quality 100.0 %
Test CRC 4E1212CC
Copy CRC 4E1212CC
Track not present in AccurateRip database
Copy OK
Track 32
Filename E:\EAC\1\32 - Louis Antoine Dornel - Suite d'orgue en Re - Trio.wav
Peak level 28.9 %
Extraction speed 1.8 X
Track quality 100.0 %
Test CRC 9A84B855
Copy CRC 9A84B855
Track not present in AccurateRip database
Copy OK
Track 33
Filename E:\EAC\1\33 - Louis Antoine Dornel - Suite d'orgue en Re - Basse.wav
Peak level 22.6 %
Extraction speed 1.9 X
Track quality 100.0 %
Test CRC 3F940BB6
Copy CRC 3F940BB6
Track not present in AccurateRip database
Copy OK
Track 34
Filename E:\EAC\1\34 - Louis Antoine Dornel - Suite d'orgue en Re - Dialogue.wav
Peak level 96.6 %
Extraction speed 2.0 X
Track quality 100.0 %
Test CRC DC617CFD
Copy CRC DC617CFD
Track not present in AccurateRip database
Copy OK
Track 35
Filename E:\EAC\1\35 - Louis Antoine Dornel - Sonate en trio no 6 en La mineur - Prelude, lentement.wav
Peak level 68.7 %
Extraction speed 1.8 X
Track quality 99.9 %
Test CRC 8FEA5095
Copy CRC 8FEA5095
Track not present in AccurateRip database
Copy OK
Track 36
Filename E:\EAC\1\36 - Louis Antoine Dornel - Sonate en trio no 6 en La mineur - Allemande, gaiement.wav
Peak level 64.9 %
Extraction speed 1.6 X
Track quality 99.8 %
Test CRC CAD33560
Copy CRC CAD33560
Track not present in AccurateRip database
Copy OK
Track 37
Filename E:\EAC\1\37 - Louis Antoine Dornel - Sonate en trio no 6 en La mineur - Sarabande.wav
Peak level 46.9 %
Extraction speed 2.3 X
Track quality 100.0 %
Test CRC 88439E30
Copy CRC 88439E30
Track not present in AccurateRip database
Copy OK
Track 38
Filename E:\EAC\1\38 - Louis Antoine Dornel - Sonate en trio no 6 en La mineur - Gavotte.wav
Peak level 47.9 %
Extraction speed 1.7 X
Track quality 100.0 %
Test CRC 7119FFCD
Copy CRC 7119FFCD
Track not present in AccurateRip database
Copy OK
Track 39
Filename E:\EAC\1\39 - Louis Antoine Dornel - Sonate en trio no 6 en La mineur - Air en gigue.wav
Peak level 60.6 %
Extraction speed 2.1 X
Track quality 100.0 %
Test CRC 2003B83E
Copy CRC 2003B83E
Track not present in AccurateRip database
Copy OK
Track 40
Filename E:\EAC\1\40 - Louis Antoine Dornel - Pieces d'Orgue en La - Basse et dessus de trompette en dialogue.wav
Peak level 47.5 %
Extraction speed 1.5 X
Track quality 99.8 %
Test CRC 73A00263
Copy CRC 73A00263
Track not present in AccurateRip database
Copy OK
Track 41
Filename E:\EAC\1\41 - Louis Antoine Dornel - Pieces d'Orgue en La - Cromorne en taille.wav
Peak level 35.3 %
Extraction speed 2.2 X
Track quality 100.0 %
Test CRC 90F61C7B
Copy CRC 90F61C7B
Track not present in AccurateRip database
Copy OK
None of the tracks are present in the AccurateRip database
No errors occurred
End of status report
==== Log checksum 7211ED4C2DC485628DF58A3C8236326C3F03040FC3E8C09B68EF555FF1B937D8 ====

CD6

Exact Audio Copy V1.0 beta 3 from 29. August 2011
EAC extraction logfile from 29. November 2014, 19:26
Various Artists / Les Maitres de l'Orgue Francais - CD6 - Divertissements
Used drive : HL-DT-STDVDRAM GH24NSB0 Adapter: 5 ID: 0
Read mode : Secure
Utilize accurate stream : Yes
Defeat audio cache : Yes
Make use of C2 pointers : No
Read offset correction : 6
Overread into Lead-In and Lead-Out : No
Fill up missing offset samples with silence : Yes
Delete leading and trailing silent blocks : No
Null samples used in CRC calculations : Yes
Used interface : Native Win32 interface for Win NT & 2000
Gap handling : Appended to previous track
Used output format : User Defined Encoder
Selected bitrate : 1024 kBit/s
Quality : High
Add ID3 tag : No
Command line compressor : C:\Program Files (x86)\Exact Audio Copy\Flac\flac.exe
Additional command line options : -8 -V -T "ARTIST=%artist%" -T "TITLE=%title%" -T "ALBUM=%albumtitle%" -T "DATE=%year%" -T "TRACKNUMBER=%tracknr%" -T "TOTALTRACKS=%numtracks%" -T "GENRE=%genre%" -T "ALBUMARTIST=%albumartist%" -T "ALBUM ARTIST=%albumartist%" -T "COMMENT=EAC Secure Mode, Test & Copy, AccurateRip, FLAC -8" %source%
TOC of the extracted CD
Track | Start | Length | Start sector | End sector
---------------------------------------------------------
1 | 0:00.00 | 1:44.05 | 0 | 7804
2 | 1:44.05 | 2:11.48 | 7805 | 17677
3 | 3:55.53 | 1:37.41 | 17678 | 24993
4 | 5:33.19 | 2:08.59 | 24994 | 34652
5 | 7:42.03 | 2:32.24 | 34653 | 46076
6 | 10:14.27 | 1:21.48 | 46077 | 52199
7 | 11:36.00 | 1:25.44 | 52200 | 58618
8 | 13:01.44 | 2:40.09 | 58619 | 70627
9 | 15:41.53 | 0:50.53 | 70628 | 74430
10 | 16:32.31 | 4:20.28 | 74431 | 93958
11 | 20:52.59 | 2:55.55 | 93959 | 107138
12 | 23:48.39 | 2:13.62 | 107139 | 117175
13 | 26:02.26 | 1:54.45 | 117176 | 125770
14 | 27:56.71 | 1:16.55 | 125771 | 131525
15 | 29:13.51 | 2:11.24 | 131526 | 141374
16 | 31:25.00 | 1:15.12 | 141375 | 147011
17 | 32:40.12 | 1:36.54 | 147012 | 154265
18 | 34:16.66 | 1:56.25 | 154266 | 162990
19 | 36:13.16 | 1:30.02 | 162991 | 169742
20 | 37:43.18 | 3:37.73 | 169743 | 186090
21 | 41:21.16 | 3:51.43 | 186091 | 203458
22 | 45:12.59 | 2:45.45 | 203459 | 215878
23 | 47:58.29 | 1:19.31 | 215879 | 221834
24 | 49:17.60 | 0:57.42 | 221835 | 226151
25 | 50:15.27 | 1:30.63 | 226152 | 232964
26 | 51:46.15 | 1:02.58 | 232965 | 237672
27 | 52:48.73 | 1:32.64 | 237673 | 244636
28 | 54:21.62 | 0:54.13 | 244637 | 248699
29 | 55:16.00 | 1:54.56 | 248700 | 257305
30 | 57:10.56 | 5:03.17 | 257306 | 280047
31 | 62:13.73 | 3:53.68 | 280048 | 297590
Track 1
Filename E:\EAC\1\01 - Jean-Francois Dandrieu - Premier Livre - L'afligee.wav
Pre-gap length 0:00:02.00
Peak level 25.2 %
Extraction speed 0.9 X
Track quality 100.0 %
Test CRC A2168F32
Copy CRC A2168F32
Track not present in AccurateRip database
Copy OK
Track 2
Filename E:\EAC\1\02 - Jean-Francois Dandrieu - Premier Livre - La Gemissante - Rondeau.wav
Peak level 17.0 %
Extraction speed 1.0 X
Track quality 100.0 %
Test CRC 3C10B7AA
Copy CRC 3C10B7AA
Track not present in AccurateRip database
Copy OK
Track 3
Filename E:\EAC\1\03 - Jean-Francois Dandrieu - Premier Livre - Les Tourbillons - Rondeau (de la Seconde Suite).wav
Peak level 27.5 %
Extraction speed 0.9 X
Track quality 100.0 %
Test CRC 0092460D
Copy CRC 0092460D
Track not present in AccurateRip database
Copy OK
Track 4
Filename E:\EAC\1\04 - Jean-Francois Dandrieu - Premier Livre - Le Timpanon et quatre variations (de la Troisieme Suite).wav
Peak level 14.5 %
Extraction speed 0.9 X
Track quality 99.9 %
Test CRC A91A3CFA
Copy CRC A91A3CFA
Track not present in AccurateRip database
Copy OK
Track 5
Filename E:\EAC\1\05 - Jean-Francois Dandrieu - Deuxieme Livre - La Lully - Ouverture.wav
Peak level 32.8 %
Extraction speed 1.2 X
Track quality 100.0 %
Test CRC E801B34B
Copy CRC E801B34B
Track not present in AccurateRip database
Copy OK
Track 6
Filename E:\EAC\1\06 - Jean-Francois Dandrieu - Deuxieme Livre - La Corelli.wav
Peak level 26.1 %
Extraction speed 0.8 X
Track quality 99.8 %
Test CRC 87E694DC
Copy CRC 87E694DC
Track not present in AccurateRip database
Copy OK
Track 7
Filename E:\EAC\1\07 - Jean-Francois Dandrieu - Deuxieme Livre - Double de la Corelli.wav
Peak level 26.5 %
Extraction speed 1.1 X
Track quality 100.0 %
Test CRC 4D5D9772
Copy CRC 4D5D9772
Track not present in AccurateRip database
Copy OK
Track 8
Filename E:\EAC\1\08 - Jean-Francois Dandrieu - Deuxieme Livre - La Lyre d'Orphee.wav
Peak level 20.2 %
Extraction speed 1.3 X
Track quality 100.0 %
Test CRC B76B6250
Copy CRC B76B6250
Track not present in AccurateRip database
Copy OK
Track 9
Filename E:\EAC\1\09 - Jean-Francois Dandrieu - Deuxieme Livre - Le Turbulent - Menuet (de la Premiere Suite).wav
Peak level 28.3 %
Extraction speed 0.9 X
Track quality 100.0 %
Test CRC DB7B288B
Copy CRC DB7B288B
Track not present in AccurateRip database
Copy OK
Track 10
Filename E:\EAC\1\10 - Jean-Francois Dandrieu - Pieces d'orgue - Noels - Noel 'Or nous dites Marie'.wav
Peak level 46.8 %
Extraction speed 1.5 X
Track quality 100.0 %
Test CRC 1EDAE0A9
Copy CRC 1EDAE0A9
Track not present in AccurateRip database
Copy OK
Track 11
Filename E:\EAC\1\11 - Jean-Francois Dandrieu - Pieces d'orgue - Noels - Offertoire.wav
Peak level 66.0 %
Extraction speed 1.5 X
Track quality 100.0 %
Test CRC D8228AD2
Copy CRC D8228AD2
Track not present in AccurateRip database
Copy OK
Track 12
Filename E:\EAC\1\12 - Jean-Francois Dandrieu - Pieces d'orgue - Noels - Fugue.wav
Peak level 39.9 %
Extraction speed 1.5 X
Track quality 100.0 %
Test CRC 070B2EB4
Copy CRC 070B2EB4
Track not present in AccurateRip database
Copy OK
Track 13
Filename E:\EAC\1\13 - Jean-Francois Dandrieu - Pieces d'orgue - Noels - Cromorne en taille.wav
Peak level 30.0 %
Extraction speed 1.5 X
Track quality 100.0 %
Test CRC 662E8D3E
Copy CRC 662E8D3E
Track not present in AccurateRip database
Copy OK
Track 14
Filename E:\EAC\1\14 - Jean-Francois Dandrieu - Pieces d'orgue - Noels - Recit de Nazard.wav
Peak level 13.2 %
Extraction speed 1.3 X
Track quality 100.0 %
Test CRC 04CE7C81
Copy CRC 04CE7C81
Track not present in AccurateRip database
Copy OK
Track 15
Filename E:\EAC\1\15 - Jean-Francois Dandrieu - Pieces d'orgue - Noels - Tierce en taille.wav
Peak level 31.4 %
Extraction speed 1.6 X
Track quality 100.0 %
Test CRC C122820B
Copy CRC C122820B
Track not present in AccurateRip database
Copy OK
Track 16
Filename E:\EAC\1\16 - Jean-Francois Dandrieu - Pieces d'orgue - Noels - Basse de cromorne.wav
Peak level 22.5 %
Extraction speed 1.4 X
Track quality 100.0 %
Test CRC CA22BC2B
Copy CRC CA22BC2B
Track not present in AccurateRip database
Copy OK
Track 17
Filename E:\EAC\1\17 - Jean-Francois Dandrieu - Pieces d'orgue - Noels - Dialogue.wav
Peak level 62.9 %
Extraction speed 1.5 X
Track quality 100.0 %
Test CRC F180C6A0
Copy CRC F180C6A0
Track not present in AccurateRip database
Copy OK
Track 18
Filename E:\EAC\1\18 - Louis-Claude Daquin - Troisieme suite - Le Couco - Rondeau, vif.wav
Peak level 20.6 %
Extraction speed 1.6 X
Track quality 100.0 %
Test CRC 11BA0444
Copy CRC 11BA0444
Track not present in AccurateRip database
Copy OK
Track 19
Filename E:\EAC\1\19 - Louis-Claude Daquin - Troisieme suite - La Joyeuse - Rondeau, legerement.wav
Peak level 27.4 %
Extraction speed 1.5 X
Track quality 100.0 %
Test CRC FB75A456
Copy CRC FB75A456
Track not present in AccurateRip database
Copy OK
Track 20
Filename E:\EAC\1\20 - Louis-Claude Daquin - Troisieme suite - La Tendre Silvie - Rondeau, tendrement.wav
Peak level 21.9 %
Extraction speed 1.9 X
Track quality 100.0 %
Test CRC 1131BAF7
Copy CRC 1131BAF7
Track not present in AccurateRip database
Copy OK
Track 21
Filename E:\EAC\1\21 - Louis-Claude Daquin - Troisieme suite - L'Amusante - 1ere Partie Rondeau, tendrement.wav
Peak level 20.8 %
Extraction speed 2.0 X
Track quality 100.0 %
Test CRC F889EA6A
Copy CRC F889EA6A
Track not present in AccurateRip database
Copy OK
Track 22
Filename E:\EAC\1\22 - Jean-Francois Dandrieu - Noel - 'Une bergere jolie'.wav
Peak level 54.6 %
Extraction speed 1.9 X
Track quality 100.0 %
Test CRC 87514F4F
Copy CRC 87514F4F
Track not present in AccurateRip database
Copy OK
Track 23
Filename E:\EAC\1\23 - Jean-Francois Dandrieu - Suite en D La Re majeur - Plein jeu.wav
Peak level 77.2 %
Extraction speed 1.6 X
Track quality 100.0 %
Test CRC 66955A34
Copy CRC 66955A34
Track not present in AccurateRip database
Copy OK
Track 24
Filename E:\EAC\1\24 - Jean-Francois Dandrieu - Suite en D La Re majeur - Trio.wav
Peak level 13.5 %
Extraction speed 1.4 X
Track quality 100.0 %
Test CRC 03EA2368
Copy CRC 03EA2368
Track not present in AccurateRip database
Copy OK
Track 25
Filename E:\EAC\1\25 - Jean-Francois Dandrieu - Suite en D La Re majeur - Duo sur la trompette.wav
Peak level 28.4 %
Extraction speed 1.7 X
Track quality 100.0 %
Test CRC 01EF50E8
Copy CRC 01EF50E8
Track not present in AccurateRip database
Copy OK
Track 26
Filename E:\EAC\1\26 - Jean-Francois Dandrieu - Suite en D La Re majeur - Trio avec la pedale.wav
Peak level 32.5 %
Extraction speed 1.5 X
Track quality 100.0 %
Test CRC 9F43719F
Copy CRC 9F43719F
Track not present in AccurateRip database
Copy OK
Track 27
Filename E:\EAC\1\27 - Jean-Francois Dandrieu - Suite en D La Re majeur - Flutes.wav
Peak level 18.5 %
Extraction speed 1.7 X
Track quality 100.0 %
Test CRC 46DB9C97
Copy CRC 46DB9C97
Track not present in AccurateRip database
Copy OK
Track 28
Filename E:\EAC\1\28 - Jean-Francois Dandrieu - Suite en D La Re majeur - Duo en cors de chasse sur la trompette.wav
Peak level 30.6 %
Extraction speed 1.4 X
Track quality 100.0 %
Test CRC 3AF3698B
Copy CRC 3AF3698B
Track not present in AccurateRip database
Copy OK
Track 29
Filename E:\EAC\1\29 - Louis-Claude Daquin - Quatrieme suite - Rejouissance des Chasseurs - Fanfare en Rondeau.wav
Peak level 72.6 %
Extraction speed 1.9 X
Track quality 100.0 %
Test CRC 69E44FE8
Copy CRC 69E44FE8
Track not present in AccurateRip database
Copy OK
Track 30
Filename E:\EAC\1\30 - Louis-Claude Daquin - Quatrieme suite - Suite de la Rejouissance - Gavotte en Rondeau et 4 Doubles.wav
Peak level 41.7 %
Extraction speed 2.3 X
Track quality 100.0 %
Test CRC BA6B1687
Copy CRC BA6B1687
Track not present in AccurateRip database
Copy OK
Track 31
Filename E:\EAC\1\31 - Jean-Philippe Rameau - Grand Dialogue en Re mineur.wav
Peak level 95.5 %
Extraction speed 2.3 X
Track quality 100.0 %
Test CRC 2532A5A1
Copy CRC 2532A5A1
Track not present in AccurateRip database
Copy OK
None of the tracks are present in the AccurateRip database
No errors occurred
End of status report
==== Log checksum 0A400CC4F571736A6CCCB92D970C58D507B51FC4FDF302692A133E968A571C74 ====

CD7

Exact Audio Copy V1.0 beta 3 from 29. August 2011
EAC extraction logfile from 29. November 2014, 21:22
Various Artists / Les Maitres de l'Orgue Francais - CD7 - Concertos et Noels
Used drive : HL-DT-STDVDRAM GH24NSB0 Adapter: 5 ID: 0
Read mode : Secure
Utilize accurate stream : Yes
Defeat audio cache : Yes
Make use of C2 pointers : No
Read offset correction : 6
Overread into Lead-In and Lead-Out : No
Fill up missing offset samples with silence : Yes
Delete leading and trailing silent blocks : No
Null samples used in CRC calculations : Yes
Used interface : Native Win32 interface for Win NT & 2000
Gap handling : Appended to previous track
Used output format : User Defined Encoder
Selected bitrate : 1024 kBit/s
Quality : High
Add ID3 tag : No
Command line compressor : C:\Program Files (x86)\Exact Audio Copy\Flac\flac.exe
Additional command line options : -8 -V -T "ARTIST=%artist%" -T "TITLE=%title%" -T "ALBUM=%albumtitle%" -T "DATE=%year%" -T "TRACKNUMBER=%tracknr%" -T "TOTALTRACKS=%numtracks%" -T "GENRE=%genre%" -T "ALBUMARTIST=%albumartist%" -T "ALBUM ARTIST=%albumartist%" -T "COMMENT=EAC Secure Mode, Test & Copy, AccurateRip, FLAC -8" %source%
TOC of the extracted CD
Track | Start | Length | Start sector | End sector
---------------------------------------------------------
1 | 0:00.00 | 2:42.36 | 0 | 12185
2 | 2:42.36 | 2:10.70 | 12186 | 22005
3 | 4:53.31 | 1:04.66 | 22006 | 26871
4 | 5:58.22 | 3:39.18 | 26872 | 43314
5 | 9:37.40 | 2:52.56 | 43315 | 56270
6 | 12:30.21 | 6:52.64 | 56271 | 87234
7 | 19:23.10 | 5:23.04 | 87235 | 111463
8 | 24:46.14 | 5:20.50 | 111464 | 135513
9 | 30:06.64 | 2:39.72 | 135514 | 147510
10 | 32:46.61 | 2:24.62 | 147511 | 158372
11 | 35:11.48 | 2:57.45 | 158373 | 171692
12 | 38:09.18 | 0:42.33 | 171693 | 174875
13 | 38:51.51 | 3:42.22 | 174876 | 191547
14 | 42:33.73 | 1:41.67 | 191548 | 199189
15 | 44:15.65 | 1:40.66 | 199190 | 206755
16 | 45:56.56 | 1:58.62 | 206756 | 215667
17 | 47:55.43 | 3:04.05 | 215668 | 229472
18 | 50:59.48 | 3:00.58 | 229473 | 243030
19 | 54:00.31 | 3:26.69 | 243031 | 258549
20 | 57:27.25 | 6:59.68 | 258550 | 290042
21 | 64:27.18 | 3:33.36 | 290043 | 306053
22 | 68:00.54 | 3:28.40 | 306054 | 321693
Track 1
Filename E:\EAC\1\01 - Michel Corrette - Concerto pour orgue en Re majeur Op.26 nr.3 - I. Allegro.wav
Pre-gap length 0:00:02.00
Peak level 89.8 %
Extraction speed 1.1 X
Track quality 100.0 %
Test CRC FAE9D497
Copy CRC FAE9D497
Track not present in AccurateRip database
Copy OK
Track 2
Filename E:\EAC\1\02 - Michel Corrette - Concerto pour orgue en Re majeur Op.26 nr.3 - II. Andante.wav
Peak level 79.6 %
Extraction speed 1.1 X
Track quality 100.0 %
Test CRC 8B82B4F9
Copy CRC 8B82B4F9
Track not present in AccurateRip database
Copy OK
Track 3
Filename E:\EAC\1\03 - Michel Corrette - Concerto pour orgue en Re majeur Op.26 nr.3 - III. Adagio.wav
Peak level 75.7 %
Extraction speed 0.9 X
Track quality 100.0 %
Test CRC E38C65E5
Copy CRC E38C65E5
Track not present in AccurateRip database
Copy OK
Track 4
Filename E:\EAC\1\04 - Michel Corrette - Concerto pour orgue en Re majeur Op.26 nr.3 - IV. Allegro.wav
Peak level 77.9 %
Extraction speed 1.3 X
Track quality 100.0 %
Test CRC 1A2114C4
Copy CRC 1A2114C4
Track not present in AccurateRip database
Copy OK
Track 5
Filename E:\EAC\1\05 - Michel Corrette - Noel - Tous les Bourgeois de Chastres.wav
Peak level 74.0 %
Extraction speed 1.3 X
Track quality 100.0 %
Test CRC 9358F541
Copy CRC 9358F541
Track not present in AccurateRip database
Copy OK
Track 6
Filename E:\EAC\1\06 - Louis-Claude Daquin - Nouveau Livre de Noels - IIIe Noel en Musette, tres tendrement.wav
Peak level 39.8 %
Extraction speed 1.6 X
Track quality 100.0 %
Test CRC CC425D95
Copy CRC CC425D95
Track not present in AccurateRip database
Copy OK
Track 7
Filename E:\EAC\1\07 - Louis-Claude Daquin - Nouveau Livre de Noels - Ve Noel.wav
Peak level 36.3 %
Extraction speed 1.6 X
Track quality 99.9 %
Test CRC 85DD0E14
Copy CRC 85DD0E14
Track not present in AccurateRip database
Copy OK
Track 8
Filename E:\EAC\1\08 - Louis-Claude Daquin - Nouveau Livre de Noels - VIe Noel.wav
Peak level 75.5 %
Extraction speed 1.7 X
Track quality 99.9 %
Test CRC 226459CC
Copy CRC 226459CC
Track not present in AccurateRip database
Copy OK
Track 9
Filename E:\EAC\1\09 - Michel Corrette - Concerto pour orgue en Re mineur Op.26 nr.6 - I. Allegro.wav
Peak level 58.6 %
Extraction speed 1.7 X
Track quality 100.0 %
Test CRC E254CC1F
Copy CRC E254CC1F
Track not present in AccurateRip database
Copy OK
Track 10
Filename E:\EAC\1\10 - Michel Corrette - Concerto pour orgue en Re mineur Op.26 nr.6 - II. Andante.wav
Peak level 59.4 %
Extraction speed 1.8 X
Track quality 100.0 %
Test CRC 97B18712
Copy CRC 97B18712
Track not present in AccurateRip database
Copy OK
Track 11
Filename E:\EAC\1\11 - Michel Corrette - Concerto pour orgue en Re mineur Op.26 nr.6 - III. Presto.wav
Peak level 78.3 %
Extraction speed 1.6 X
Track quality 99.9 %
Test CRC D77B95AD
Copy CRC D77B95AD
Track not present in AccurateRip database
Copy OK
Track 12
Filename E:\EAC\1\12 - Claude Balbastre - Troisieme Suite de Noels - Prelude, Gracieusement.wav
Peak level 23.5 %
Extraction speed 1.1 X
Track quality 100.0 %
Test CRC DBB958FF
Copy CRC DBB958FF
Track not present in AccurateRip database
Copy OK
Track 13
Filename E:\EAC\1\13 - Claude Balbastre - Troisieme Suite de Noels - Que tu gro jan, quei folie, Gaiement.wav
Peak level 89.1 %
Extraction speed 2.0 X
Track quality 100.0 %
Test CRC 9D0BDC60
Copy CRC 9D0BDC60
Track not present in AccurateRip database
Copy OK
Track 14
Filename E:\EAC\1\14 - Claude Balbastre - Troisieme Suite de Noels - Divine Princesse, Gracieusement.wav
Peak level 23.6 %
Extraction speed 1.3 X
Track quality 99.8 %
Test CRC 2B4BE1DD
Copy CRC 2B4BE1DD
Track not present in AccurateRip database
Copy OK
Track 15
Filename E:\EAC\1\15 - Claude Balbastre - Troisieme Suite de Noels - O jour ton divin Flambeau, Lentement.wav
Peak level 19.3 %
Extraction speed 1.4 X
Track quality 99.8 %
Test CRC 46029FC0
Copy CRC 46029FC0
Track not present in AccurateRip database
Copy OK
Track 16
Filename E:\EAC\1\16 - Claude Balbastre - Troisieme Suite de Noels - Quel desordre dans la nature, Gracieusement.wav
Peak level 25.2 %
Extraction speed 1.5 X
Track quality 99.9 %
Test CRC FCFC2D9A
Copy CRC FCFC2D9A
Track not present in AccurateRip database
Copy OK
Track 17
Filename E:\EAC\1\17 - Claude Balbastre - Troisieme Suite de Noels - Ve Noci Blaizote, Gracieusement - mineur - variation du majeur.wav
Peak level 16.4 %
Extraction speed 2.1 X
Track quality 100.0 %
Test CRC 9338A29E
Copy CRC 9338A29E
Track not present in AccurateRip database
Copy OK
Track 18
Filename E:\EAC\1\18 - Claude Balbastre - Troisieme Suite de Noels - Fanne coraige, le diale a mor, Sans vitesse - modere.wav
Peak level 25.8 %
Extraction speed 2.1 X
Track quality 100.0 %
Test CRC 8902EDDD
Copy CRC 8902EDDD
Track not present in AccurateRip database
Copy OK
Track 19
Filename E:\EAC\1\19 - Claude Balbastre - Concerto en Re majeur - I. Prelude.wav
Peak level 71.0 %
Extraction speed 2.2 X
Track quality 100.0 %
Test CRC 070421C8
Copy CRC 070421C8
Track not present in AccurateRip database
Copy OK
Track 20
Filename E:\EAC\1\20 - Claude Balbastre - Concerto en Re majeur - II. Allegro.wav
Peak level 56.6 %
Extraction speed 2.5 X
Track quality 100.0 %
Test CRC FDD5BF91
Copy CRC FDD5BF91
Track not present in AccurateRip database
Copy OK
Track 21
Filename E:\EAC\1\21 - Claude Balbastre - Concerto en Re majeur - III. Gavottes 1 & 2.wav
Peak level 20.1 %
Extraction speed 2.1 X
Track quality 99.9 %
Test CRC 45E45F48
Copy CRC 45E45F48
Track not present in AccurateRip database
Copy OK
Track 22
Filename E:\EAC\1\22 - Claude Balbastre - Concerto en Re majeur - IV. Allegro.wav
Peak level 72.7 %
Extraction speed 2.4 X
Track quality 100.0 %
Test CRC 3388107C
Copy CRC 3388107C
Track not present in AccurateRip database
Copy OK
None of the tracks are present in the AccurateRip database
No errors occurred
End of status report
==== Log checksum 063BF54439D214352AFFB84DE64113D13306A0E5F93A5BF0B266ADF684EF625C ====

CD8

Exact Audio Copy V1.0 beta 3 from 29. August 2011
EAC extraction logfile from 29. November 2014, 23:01
Various Artists / Les Maitres de l'Orgue Francais - CD8 - Orages et Renouveau
Used drive : HL-DT-STDVDRAM GH24NSB0 Adapter: 5 ID: 0
Read mode : Secure
Utilize accurate stream : Yes
Defeat audio cache : Yes
Make use of C2 pointers : No
Read offset correction : 6
Overread into Lead-In and Lead-Out : No
Fill up missing offset samples with silence : Yes
Delete leading and trailing silent blocks : No
Null samples used in CRC calculations : Yes
Used interface : Native Win32 interface for Win NT & 2000
Gap handling : Appended to previous track
Used output format : User Defined Encoder
Selected bitrate : 1024 kBit/s
Quality : High
Add ID3 tag : No
Command line compressor : C:\Program Files (x86)\Exact Audio Copy\Flac\flac.exe
Additional command line options : -8 -V -T "ARTIST=%artist%" -T "TITLE=%title%" -T "ALBUM=%albumtitle%" -T "DATE=%year%" -T "TRACKNUMBER=%tracknr%" -T "TOTALTRACKS=%numtracks%" -T "GENRE=%genre%" -T "ALBUMARTIST=%albumartist%" -T "ALBUM ARTIST=%albumartist%" -T "COMMENT=EAC Secure Mode, Test & Copy, AccurateRip, FLAC -8" %source%
TOC of the extracted CD
Track | Start | Length | Start sector | End sector
---------------------------------------------------------
1 | 0:00.00 | 2:54.65 | 0 | 13114
2 | 2:54.65 | 2:03.70 | 13115 | 22409
3 | 4:58.60 | 1:47.19 | 22410 | 30453
4 | 6:46.04 | 1:54.72 | 30454 | 39075
5 | 8:41.01 | 1:28.60 | 39076 | 45735
6 | 10:09.61 | 1:24.16 | 45736 | 52051
7 | 11:34.02 | 2:47.73 | 52052 | 64649
8 | 14:22.00 | 2:06.54 | 64650 | 74153
9 | 16:28.54 | 3:39.30 | 74154 | 90608
10 | 20:08.09 | 2:47.47 | 90609 | 103180
11 | 22:55.56 | 6:04.24 | 103181 | 130504
12 | 29:00.05 | 9:04.44 | 130505 | 171348
13 | 38:04.49 | 1:33.59 | 171349 | 178382
14 | 39:38.33 | 1:45.44 | 178383 | 186301
15 | 41:24.02 | 1:40.73 | 186302 | 193874
16 | 43:05.00 | 2:58.47 | 193875 | 207271
17 | 46:03.47 | 5:14.44 | 207272 | 230865
18 | 51:18.16 | 7:19.55 | 230866 | 263845
19 | 58:37.71 | 2:48.00 | 263846 | 276445
20 | 61:25.71 | 3:26.62 | 276446 | 291957
21 | 64:52.58 | 5:16.51 | 291958 | 315708
Track 1
Filename E:\EAC\1\01 - Michel Corrette - Grand jeu avec le Tonnerre - Allegro en Sol mineur.wav
Pre-gap length 0:00:02.00
Peak level 91.9 %
Extraction speed 1.1 X
Track quality 100.0 %
Test CRC 334B6E3A
Copy CRC 334B6E3A
Track not present in AccurateRip database
Copy OK
Track 2
Filename E:\EAC\1\02 - Josse-Francois-Joseph Benaut - Voix Humaine, tendrement.wav
Peak level 16.3 %
Extraction speed 1.1 X
Track quality 100.0 %
Test CRC E1D75DCD
Copy CRC E1D75DCD
Track not present in AccurateRip database
Copy OK
Track 3
Filename E:\EAC\1\03 - Josse-Francois-Joseph Benaut - Recit Arpegetto.wav
Peak level 9.4 %
Extraction speed 1.1 X
Track quality 100.0 %
Test CRC E492833E
Copy CRC E492833E
Track not present in AccurateRip database
Copy OK
Track 4
Filename E:\EAC\1\04 - Claude Balbastre - Chasse, en Si bemol majeur.wav
Peak level 29.6 %
Extraction speed 1.1 X
Track quality 100.0 %
Test CRC 15C44324
Copy CRC 15C44324
Track not present in AccurateRip database
Copy OK
Track 5
Filename E:\EAC\1\05 - Claude Balbastre - Musette, en Fa majeur.wav
Peak level 17.6 %
Extraction speed 1.1 X
Track quality 100.0 %
Test CRC E36E83AA
Copy CRC E36E83AA
Track not present in AccurateRip database
Copy OK
Track 6
Filename E:\EAC\1\06 - Claude Balbastre - Pastoralle tout de suite, en Fa mineur-majeur.wav
Peak level 18.8 %
Extraction speed 1.1 X
Track quality 100.0 %
Test CRC 27F5182B
Copy CRC 27F5182B
Track not present in AccurateRip database
Copy OK
Track 7
Filename E:\EAC\1\07 - Jean-Jacques Beauvalet-Charpentier - Fuga III, Allegro Moderato, en La mineur.wav
Peak level 21.5 %
Extraction speed 1.2 X
Track quality 99.9 %
Test CRC 91A7B877
Copy CRC 91A7B877
Track not present in AccurateRip database
Copy OK
Track 8
Filename E:\EAC\1\08 - Jean-Jacques Beauvalet-Charpentier - Fuga IV, Allegro, en La mineur.wav
Peak level 30.5 %
Extraction speed 1.3 X
Track quality 100.0 %
Test CRC 22E49859
Copy CRC 22E49859
Track not present in AccurateRip database
Copy OK
Track 9
Filename E:\EAC\1\09 - Armand-Louis Couperin - Dialogue entre le Chalumeau et le Basson, en Sol majeur-mineur.wav
Peak level 19.9 %
Extraction speed 1.6 X
Track quality 100.0 %
Test CRC 3C6646A7
Copy CRC 3C6646A7
Track not present in AccurateRip database
Copy OK
Track 10
Filename E:\EAC\1\10 - Armand-Louis Couperin - La Chasse, en Re majeur.wav
Peak level 62.0 %
Extraction speed 1.3 X
Track quality 99.9 %
Test CRC 87BFF716
Copy CRC 87BFF716
Track not present in AccurateRip database
Copy OK
Track 11
Filename E:\EAC\1\11 - Guillaume Lasceux - Offertoire Symphonie concertante en Sol majeur.wav
Peak level 71.4 %
Extraction speed 1.8 X
Track quality 100.0 %
Test CRC 707BAB86
Copy CRC 707BAB86
Track not present in AccurateRip database
Copy OK
Track 12
Filename E:\EAC\1\12 - Gervais-Francois Couperin - Louis XVIII ou le retour du bonheur en France op.14.wav
Peak level 77.6 %
Extraction speed 2.1 X
Track quality 100.0 %
Test CRC D53D4869
Copy CRC D53D4869
Track not present in AccurateRip database
Copy OK
Track 13
Filename E:\EAC\1\13 - Alexandre-Pierre-Francois Boely - Dialogue du cornet et du basson Op.35 nr.8.wav
Peak level 29.4 %
Extraction speed 1.6 X
Track quality 100.0 %
Test CRC 2AF8A470
Copy CRC 2AF8A470
Track not present in AccurateRip database
Copy OK
Track 14
Filename E:\EAC\1\14 - Alexandre-Pierre-Francois Boely - Quatuor a 2 claviers separes Op.10 nr.12.wav
Peak level 21.7 %
Extraction speed 1.4 X
Track quality 99.8 %
Test CRC EB3192A6
Copy CRC EB3192A6
Track not present in AccurateRip database
Copy OK
Track 15
Filename E:\EAC\1\15 - Alexandre-Pierre-Francois Boely - Rentree de la procession Op.42 nr.14.wav
Peak level 98.7 %
Extraction speed 1.7 X
Track quality 100.0 %
Test CRC 151E2E1D
Copy CRC 151E2E1D
Track not present in AccurateRip database
Copy OK
Track 16
Filename E:\EAC\1\16 - Alexandre-Pierre-Francois Boely - Prelude d'orgue Op.18 nr.2.wav
Peak level 26.4 %
Extraction speed 1.7 X
Track quality 99.9 %
Test CRC 6089BD03
Copy CRC 6089BD03
Track not present in AccurateRip database
Copy OK
Track 17
Filename E:\EAC\1\17 - Alexandre-Pierre-Francois Boely - Antienne - Rorate Coeli.wav
Peak level 38.8 %
Extraction speed 2.2 X
Track quality 100.0 %
Test CRC 2621D442
Copy CRC 2621D442
Track not present in AccurateRip database
Copy OK
Track 18
Filename E:\EAC\1\18 - Alexandre-Pierre-Francois Boely - Hymne - Stupete gentes - Hymne, Fughetta, Trio, Fuge.wav
Peak level 87.2 %
Extraction speed 2.4 X
Track quality 100.0 %
Test CRC 0279EC64
Copy CRC 0279EC64
Track not present in AccurateRip database
Copy OK
Track 19
Filename E:\EAC\1\19 - Alexandre-Pierre-Francois Boely - Allegro ma non troppo Fa mineur Op.18 nr.7.wav
Peak level 35.7 %
Extraction speed 1.8 X
Track quality 99.9 %
Test CRC 96A4EC56
Copy CRC 96A4EC56
Track not present in AccurateRip database
Copy OK
Track 20
Filename E:\EAC\1\20 - Alexandre-Pierre-Francois Boely - Andante con moto en Mi bemol majeur Op.18 nr.1.wav
Peak level 25.6 %
Extraction speed 2.0 X
Track quality 99.9 %
Test CRC 576EF6D3
Copy CRC 576EF6D3
Track not present in AccurateRip database
Copy OK
Track 21
Filename E:\EAC\1\21 - Alexandre-Pierre-Francois Boely - Fantaisie et Fugue en Si bemol Op.18 nr.6.wav
Peak level 89.4 %
Extraction speed 2.5 X
Track quality 100.0 %
Test CRC 22DEB150
Copy CRC 22DEB150
Track not present in AccurateRip database
Copy OK
None of the tracks are present in the AccurateRip database
No errors occurred
End of status report
==== Log checksum D3DD7387AF0866A567549BB37B817D5AAB63A4D46F8D42BB5881A267D36776D8 ====
[teatrix.ru].t19599.torrent 
Торрент: Зарегистрирован [ 2016-03-18 12:41 ] · AC2BD480EF43CB266F29A0CFEFDABE760FB68835

Скачать .torrent

Скачать

47 KB

Статус: проверено
Скачан: 1 раз
Размер: 2.61 GB
terms.php



Быстрый ответ

Имя:

      
Для отправки сообщений необходимо включить JavaScript
Показать сообщения:    

Текущее время: 10-Дек 04:08

Часовой пояс: UTC + 3


Вы можете начинать темы
Вы можете отвечать на сообщения
Вы не можете редактировать свои сообщения
Вы не можете удалять свои сообщения
Вы не можете голосовать в опросах
Вы не можете прикреплять файлы к сообщениям
Вы можете скачивать файлы