(Opera) Верди - Эрнани / Verdi - Ernani (Dessi, La Scola, Pertusi, Coni, Giorgio - Orchestra Internazionale d'Italia, Carella) - 1992, APE (image+.cue) lossless


 

[Цитировать]

Giuseppe Verdi - Ernani
Жанр: Opera
Страна-производитель диска: Itaqly
Год издания диска: 1992
Издатель (лейбл): Nuova Era
Номер по каталогу: 702829
Дата записи: 1991
Аудиокодек: APE
Тип рипа: image+.cue
Битрейт аудио: lossless
Продолжительность: 65'54 + 73'33
Источник: собственный рип
Наличие сканов в содержимом раздачи: да
Треклист:

CD1

1. Overture
2. Act I, Scene I, "Evviva!... Beviamo" (Chor)
3. Act I, Scene II, "Mercè, Diletti Amici - Come Rugiada al Cespite" (Ernani, Chor)
4. Act I, Scene III, "Dell'esilio nel Dolore" (Ernani)
5. Act I, Scene IV, "Surta èla Notte" (Elvira)
6. Act I, Scene V, "Ernani!... Ernani Involami" (Elvira)
7. Act I, Scene VI, "Tutto Sprezzo Che D'Ernani" (Elvira, Chor)
8. Act I, Scene VII, "Fa Che a Me Venga" (Carlo, Elvira, Giovanna)
9. Act I, Scene VIII, "Da Quel Dì Che T'Ho Veduta" (Carlo, Elvira)
10. Act I, Scene IX, "Non T'Ascolto, Mia Sarai" (Carlo, Elvira, Ernani)
11. Act I, Scene X, "Che Mai Vegg'io - Infelice, e Tuo Credevi" (Silva)
12. Act I, Scene XI, "Infin Che un Brando Vindice" (Silva)
13. Act I, Scene XII, "Uscite!" (Silva, Ernani, Carlo, Jago, Riccardo)
14. Act I, Scene XIII, "Vedi Come Il Buon Vegliardo" (Carlo, Tutti)
15. Act II, Scene I, "Esultiamo!" (Chor, Tutti)
16. Act II, Scene II, "Jago, Qui Tosto Il Pellegrin Adduci" (Silva, Elvira, Ernani)
17. Act II, Scene III, "Oro, Quant'oro Ogni Avido" (Ernani, Elvira, Silva)
18. Act II, Scene IV, "Tu Perfida" (Ernani, Elvira)
19. Act II, Scene V, "Ah, Morir Potessi Adesso" (Ernani, Elvira)
20. Act II, Scene VI, "No, Vendetta Più Tremenda" (Silva, Ernani, Elvira)
21. Act II, Scene VII, "Cugino, a Che Munito" (Carlo, Silva)
22. Act II, Scene VIII, "Lo Vedremo, Veglio Audace" (Carlo, Silva)

CD2

1. Act II, Scene IX, "Fu Esplorata del Castello" (Chor)
2. Act II, Scene X, "Vieni Meco, Sol di Rose" (Carlo)
3. Act II, Scene XI, "A Te, Scegli... Seguimi" (Silva, Ernani)
4. Act II, Scene XII, "Odi Il Voto" (Ernani)
5. Act II, Scene XIII, "Sprezzo La Vita" (Ernani)
6. Act III, Scene I, "Questo è il Loco?" (Carlo, Riccardo)
7. Act III, Scene II, "Gran Dio!" (Carlo)
8. Act III, Scene III, "Oh de' Verd'anni Miei" (Carlo)
9. Act III, Scene IV, "Ad Augusta" (Chor, Tutti)
10. Act III, Scene V, "Un Patto, un Giuramento - Si Ridesti il Leon di Castiglia" (Chor)
11. Act III, Scene VI, "Qual Rumore" (Chor, Carlo, Elvira, Ernani, Riccardo)
12. Act III, Scene VII, "O Sommo Carlo" (Carlo, Silva, Tutti)
13. Act IV, Scene I, "O Come Felici" (Chor)
14. Act IV, Scene II, "Cessaro i Suoni" (Ernani)
15. Act IV, Scene III, "Ferma, Crudele, Estinguere" (Elvira, Ernani, Silva)
Исполнители:
Giuseppe Verdi - Ernani
Dramma lirico in quattro parti
Libretto di Francesco Maria Piave
Elvira - Daniela Dessi (Soprano)
Ernani - Vincenzo La Scola (Tenor)
Don Gomez De Silva - Michele Pertusi (Bass),
Jago -Riccardo Ristori (Bass)
Don Carlo - Paolo Coni (Baritone)
Giovanna - Marina Giorgio (Mezzo Soprano),
Don Riccardo - Diego Cossu (Tenor)
Coro di Camera di Bratislava
Orchestra Internazionale d'Italia
Giuliano Carella
Language: Italian

Лог создания рипа

CD1

Exact Audio Copy V1.0 beta 3 from 29. August 2011
EAC extraction logfile from 7. September 2014, 20:25
Verdi / Ernani, Carella CD1
Used drive : TS8XDVDSTRANSCEND Adapter: 1 ID: 1
Read mode : Secure
Utilize accurate stream : Yes
Defeat audio cache : Yes
Make use of C2 pointers : No
Read offset correction : 6
Overread into Lead-In and Lead-Out : No
Fill up missing offset samples with silence : Yes
Delete leading and trailing silent blocks : No
Null samples used in CRC calculations : Yes
Used interface : Native Win32 interface for Win NT & 2000
Used output format : Monkey's Audio Lossless Encoder
Selected bitrate : High Lossless Compression
Quality : High
Add ID3 tag : No
Command line compressor : C:\Program Files (x86)\Exact Audio Copy\MAC\MAC.exe
TOC of the extracted CD
Track | Start | Length | Start sector | End sector
---------------------------------------------------------
1 | 0:00.00 | 3:11.24 | 0 | 14348
2 | 3:11.24 | 3:18.15 | 14349 | 29213
3 | 6:29.39 | 4:45.35 | 29214 | 50623
4 | 11:14.74 | 3:25.25 | 50624 | 66023
5 | 14:40.24 | 2:36.25 | 66024 | 77748
6 | 17:16.49 | 4:13.62 | 77749 | 96785
7 | 21:30.36 | 3:15.38 | 96786 | 111448
8 | 24:45.74 | 3:18.25 | 111449 | 126323
9 | 28:04.24 | 4:09.50 | 126324 | 145048
10 | 32:13.74 | 3:44.00 | 145049 | 161848
11 | 35:57.74 | 3:54.35 | 161849 | 179433
12 | 39:52.34 | 2:58.15 | 179434 | 192798
13 | 42:50.49 | 1:27.62 | 192799 | 199385
14 | 44:18.36 | 6:48.48 | 199386 | 230033
15 | 51:07.09 | 2:35.61 | 230034 | 241719
16 | 53:42.70 | 2:28.25 | 241720 | 252844
17 | 56:11.20 | 3:08.25 | 252845 | 266969
18 | 59:19.45 | 2:25.37 | 266970 | 277881
19 | 61:45.07 | 3:56.63 | 277882 | 295644
20 | 65:41.70 | 2:05.20 | 295645 | 305039
21 | 67:47.15 | 3:13.55 | 305040 | 319569
22 | 71:00.70 | 2:38.51 | 319570 | 331470
Range status and errors
Selected range
Filename D:\EAC\Verdi - Ernani, Carella CD1.wav
Peak level 89.6 %
Extraction speed 3.4 X
Range quality 99.9 %
Test CRC B037FEEB
Copy CRC B037FEEB
Copy OK
No errors occurred
AccurateRip summary
Track 1 accurately ripped (confidence 1) [EAD66DDA] (AR v1)
Track 2 accurately ripped (confidence 1) [7FA1AA33] (AR v1)
Track 3 accurately ripped (confidence 1) [62670200] (AR v1)
Track 4 accurately ripped (confidence 1) [F42EADEC] (AR v1)
Track 5 accurately ripped (confidence 1) [CD7CC7CC] (AR v1)
Track 6 accurately ripped (confidence 1) [843B94C2] (AR v1)
Track 7 accurately ripped (confidence 1) [3876C888] (AR v1)
Track 8 accurately ripped (confidence 1) [EF3391A9] (AR v1)
Track 9 accurately ripped (confidence 1) [360004C3] (AR v1)
Track 10 accurately ripped (confidence 1) [66F794A1] (AR v1)
Track 11 accurately ripped (confidence 1) [C03A11F3] (AR v1)
Track 12 accurately ripped (confidence 1) [628DA17B] (AR v1)
Track 13 accurately ripped (confidence 1) [735AC02C] (AR v1)
Track 14 accurately ripped (confidence 1) [B5138B2E] (AR v1)
Track 15 accurately ripped (confidence 1) [54F356A1] (AR v1)
Track 16 accurately ripped (confidence 1) [CE18879F] (AR v1)
Track 17 accurately ripped (confidence 1) [F09639EA] (AR v1)
Track 18 accurately ripped (confidence 1) [DC13C80B] (AR v1)
Track 19 accurately ripped (confidence 1) [6F9A9E6A] (AR v1)
Track 20 accurately ripped (confidence 1) [F97521D1] (AR v1)
Track 21 accurately ripped (confidence 1) [D8748F50] (AR v1)
Track 22 accurately ripped (confidence 1) [EB02688A] (AR v1)
All tracks accurately ripped
End of status report
---- CUETools DB Plugin V2.1.3
[CTDB TOCID: PxkJ6ttNu5gwSV5Rmu.aRHtz1b4-] disk not present in database, Submit result: unrecognized or virtual drive
==== Log checksum BEEC88E9C743C8631323B929767BC9D6D451C63CA620F4114446DEEA44157EA2 ====

CD2

Exact Audio Copy V1.0 beta 3 from 29. August 2011
EAC extraction logfile from 7. September 2014, 20:13
Verdi / Ernani, Carella CD2
Used drive : TSSTcorpCDDVDW SE-208AB Adapter: 1 ID: 0
Read mode : Secure
Utilize accurate stream : Yes
Defeat audio cache : Yes
Make use of C2 pointers : No
Read offset correction : 6
Overread into Lead-In and Lead-Out : No
Fill up missing offset samples with silence : Yes
Delete leading and trailing silent blocks : No
Null samples used in CRC calculations : Yes
Used interface : Native Win32 interface for Win NT & 2000
Used output format : Monkey's Audio Lossless Encoder
Selected bitrate : High Lossless Compression
Quality : High
Add ID3 tag : No
Command line compressor : C:\Program Files (x86)\Exact Audio Copy\MAC\MAC.exe
TOC of the extracted CD
Track | Start | Length | Start sector | End sector
---------------------------------------------------------
1 | 0:00.00 | 3:09.34 | 0 | 14208
2 | 3:09.34 | 4:25.00 | 14209 | 34083
3 | 7:34.34 | 5:08.00 | 34084 | 57183
4 | 12:42.34 | 5:38.00 | 57184 | 82533
5 | 18:20.34 | 2:16.50 | 82534 | 92783
6 | 20:37.09 | 3:50.50 | 92784 | 110083
7 | 24:27.59 | 1:33.10 | 110084 | 117068
8 | 26:00.69 | 3:18.62 | 117069 | 131980
9 | 29:19.56 | 4:17.28 | 131981 | 151283
10 | 33:37.09 | 1:41.32 | 151284 | 158890
11 | 35:18.41 | 3:32.43 | 158891 | 174833
12 | 38:51.09 | 4:45.61 | 174834 | 196269
13 | 43:36.70 | 3:09.11 | 196270 | 210455
14 | 46:46.06 | 9:04.10 | 210456 | 251265
15 | 55:50.16 | 9:56.41 | 251266 | 296006
Range status and errors
Selected range
Filename D:\EAC\Verdi - Ernani, Carella CD2.wav
Peak level 100.0 %
Extraction speed 4.9 X
Range quality 100.0 %
Test CRC 3955FF8F
Copy CRC 3955FF8F
Copy OK
No errors occurred
AccurateRip summary
Track 1 accurately ripped (confidence 1) [1DAB5058] (AR v1)
Track 2 accurately ripped (confidence 1) [F28EC95D] (AR v1)
Track 3 accurately ripped (confidence 1) [F63F9742] (AR v1)
Track 4 accurately ripped (confidence 1) [D05C1638] (AR v1)
Track 5 accurately ripped (confidence 1) [90BA2470] (AR v1)
Track 6 accurately ripped (confidence 1) [FD33E93B] (AR v1)
Track 7 accurately ripped (confidence 1) [AF3FEB5F] (AR v1)
Track 8 accurately ripped (confidence 1) [16EAFBED] (AR v1)
Track 9 accurately ripped (confidence 1) [F4F24FA6] (AR v1)
Track 10 accurately ripped (confidence 1) [AF205D73] (AR v1)
Track 11 accurately ripped (confidence 1) [CE2EEFAD] (AR v1)
Track 12 accurately ripped (confidence 1) [BDF80CAA] (AR v1)
Track 13 accurately ripped (confidence 1) [EE3FB2F7] (AR v1)
Track 14 accurately ripped (confidence 1) [67FEE7D0] (AR v1)
Track 15 accurately ripped (confidence 1) [78E061A6] (AR v1)
All tracks accurately ripped
End of status report
---- CUETools DB Plugin V2.1.3
[CTDB TOCID: aT.WDe8b5.kHGiJAxLsPaIkYavc-] disk not present in database, Submit result: aT.WDe8b5.kHGiJAxLsPaIkYavc- has been uploaded
==== Log checksum F0881D51EDDBEEF885856E9921CD99E0E95D63D179C620DD8FE216EF17E80E09 ====

Содержание индексной карты (.CUE)

CD1

REM GENRE Opera
REM DATE 1991
REM DISCID 59114316
REM COMMENT "ExactAudioCopy v1.0b3"
PERFORMER "Verdi"
TITLE "Ernani, Carella CD1"
FILE "Verdi - Ernani, Carella CD1.ape" WAVE
TRACK 01 AUDIO
TITLE "Preludio"
PERFORMER "Verdi"
INDEX 01 00:00:00
TRACK 02 AUDIO
TITLE "Atto 1 - 'Evviva!... beviamo' (Coro)"
PERFORMER "Verdi"
INDEX 01 03:11:24
TRACK 03 AUDIO
TITLE "Atto 1 - 'Mercé, diletti amici - Come rugiada al cespite' (Ernani)"
PERFORMER "Verdi"
INDEX 01 06:29:39
TRACK 04 AUDIO
TITLE "Atto 1 - 'Dell'esilio nel dolore' (Ernani)"
PERFORMER "Verdi"
INDEX 01 11:14:74
TRACK 05 AUDIO
TITLE "Atto 1 - 'Surta è la notte' (Elvira)"
PERFORMER "Verdi"
INDEX 01 14:40:24
TRACK 06 AUDIO
TITLE "Atto 1 - 'Ernani!... Ernani involami' (Elvira)"
PERFORMER "Verdi"
INDEX 01 17:16:49
TRACK 07 AUDIO
TITLE "Atto 1 - 'Tutto sprezzo che d'Ernani' (Elvira)"
PERFORMER "Verdi"
INDEX 01 21:30:36
TRACK 08 AUDIO
TITLE "Atto 1 - 'Fa che a me venga' (Carlo/Elvira)"
PERFORMER "Verdi"
INDEX 01 24:45:74
TRACK 09 AUDIO
TITLE "Atto 1 - 'Da quel dì che t'ho veduta' (Carlo/Elvira)"
PERFORMER "Verdi"
INDEX 01 28:04:24
TRACK 10 AUDIO
TITLE "Atto 1 - 'Non t'ascolto, mia sarai' (Carlo,Elvira,Ernani)"
PERFORMER "Verdi"
INDEX 01 32:13:74
TRACK 11 AUDIO
TITLE "Atto 1 - 'Che mai vegg'io - Infelice, e tuo credevi' (Silva)"
PERFORMER "Verdi"
INDEX 01 35:57:74
TRACK 12 AUDIO
TITLE "Atto 1 - 'Infìn che un brando vindice' (Silva)"
PERFORMER "Verdi"
INDEX 01 39:52:34
TRACK 13 AUDIO
TITLE "Atto 1 - 'Uscite!' (Silva)"
PERFORMER "Verdi"
INDEX 01 42:50:49
TRACK 14 AUDIO
TITLE "Atto 1 - 'Vedi come il buon vegliardo' (Carlo/Tutti)"
PERFORMER "Verdi"
INDEX 01 44:18:36
TRACK 15 AUDIO
TITLE "Atto 2 - 'Esultiamo!' (Coro)"
PERFORMER "Verdi"
INDEX 01 51:07:09
TRACK 16 AUDIO
TITLE "Atto 2 - 'Jago, qui tosto il pellegrin adduci' (Silva)"
PERFORMER "Verdi"
INDEX 01 53:42:70
TRACK 17 AUDIO
TITLE "Atto 2 - 'Oro, quant'oro ogni avido' (Ernani)"
PERFORMER "Verdi"
INDEX 01 56:11:20
TRACK 18 AUDIO
TITLE "Atto 2 - 'Tu perfida' (Ernani)"
PERFORMER "Verdi"
INDEX 01 59:19:45
TRACK 19 AUDIO
TITLE "Atto 2 - 'Ah, morir potessi adesso' (Ernani/Elvira)"
PERFORMER "Verdi"
INDEX 01 61:45:07
TRACK 20 AUDIO
TITLE "Atto 2 - 'No, vendetta più tremenda' (Silva,Ernani,Elvira)"
PERFORMER "Verdi"
INDEX 01 65:41:70
TRACK 21 AUDIO
TITLE "Atto 2 - 'Cugino, a che munito' (Carlo/Silva)"
PERFORMER "Verdi"
INDEX 01 67:47:15
TRACK 22 AUDIO
TITLE "Atto 2 - 'Lo vedremo, veglio audace' (Carlo/Silva)"
PERFORMER "Verdi"
INDEX 01 71:00:70

CD2

REM GENRE Opera
REM DATE 1991
REM DISCID BD0F6A0F
REM COMMENT "ExactAudioCopy v1.0b3"
PERFORMER "Verdi"
TITLE "Ernani, Carella CD2"
FILE "Verdi - Ernani, Carella CD2.ape" WAVE
TRACK 01 AUDIO
TITLE "Atto 2 - 'Fu esplorata del castello' (Coro)"
PERFORMER "Verdi"
INDEX 01 00:00:00
TRACK 02 AUDIO
TITLE "Atto 2 - 'Vieni meco, sol di rose' (Carlo)"
PERFORMER "Verdi"
INDEX 01 03:09:34
TRACK 03 AUDIO
TITLE "Atto 2 - 'A te, scegli... seguimi' (Silva/Ernani)"
PERFORMER "Verdi"
INDEX 01 07:34:34
TRACK 04 AUDIO
TITLE "Atto 2 - 'Odi il voto' (Ernani)"
PERFORMER "Verdi"
INDEX 01 12:42:34
TRACK 05 AUDIO
TITLE "Atto 2 - 'Sprezzo la vita' (Ernani)"
PERFORMER "Verdi"
INDEX 01 18:20:34
TRACK 06 AUDIO
TITLE "Atto 3 - 'Questo è il loco?' (Carlo/Riccardo)"
PERFORMER "Verdi"
INDEX 01 20:37:09
TRACK 07 AUDIO
TITLE "Atto 3 - 'Gran Dio!' (Carlo)"
PERFORMER "Verdi"
INDEX 01 24:27:59
TRACK 08 AUDIO
TITLE "Atto 3 - 'Oh, de' verd'anni miei' (Carlo)"
PERFORMER "Verdi"
INDEX 01 26:00:69
TRACK 09 AUDIO
TITLE "Atto 3 - 'Ad augusta!' (Coro)"
PERFORMER "Verdi"
INDEX 01 29:19:56
TRACK 10 AUDIO
TITLE "Atto 3 - 'Un patto, un giuramento - Si ridesti il Leon di Castiglia' (Coro)"
PERFORMER "Verdi"
INDEX 01 33:37:09
TRACK 11 AUDIO
TITLE "Atto 3 - 'Qual rumore' (Coro)"
PERFORMER "Verdi"
INDEX 01 35:18:41
TRACK 12 AUDIO
TITLE "Atto 3 - 'O sommo Carlo' (Carlo)"
PERFORMER "Verdi"
INDEX 01 38:51:09
TRACK 13 AUDIO
TITLE "Atto 4 - 'O come felici' (Coro)"
PERFORMER "Verdi"
INDEX 01 43:36:70
TRACK 14 AUDIO
TITLE "Atto 4 - 'Cessare i suoni' (Ernani)"
PERFORMER "Verdi"
INDEX 01 46:46:06
TRACK 15 AUDIO
TITLE "Atto 4 - 'Ferma, crudele, estinguere' (Elvira,Ernani,Silva)"
PERFORMER "Verdi"
INDEX 01 55:50:16
Доп. информация:
In June, 1843, Verdi signed a contract with the Teatro La Fenice, Venice, for a new opera; it would be his fifth work for the stage and his first for a theater other than Milan's La Scala.
Verdi persuaded the young poet Francesco Maria Piave to write a libretto based on Victor Hugo's play, Hernani, of 1830.
Ernani would be the first of Verdi and Piave's many collaborations, and was very popular from its first performance on March 9, 1844.
Ernani represents a turning point in Verdi's career.
Because his previous operas had been composed for La Scala, he had grown accustomed to writing works for a large stage appropriate for immense choral scenes.
For the significantly smaller La Fenice, Verdi had to develop a more intimate drama focusing on personal conflict and confrontation.
To do this, he had to compose in a different way, leading him to alter the traditional set "numbers" of Italian opera.
One of Verdi's innovative strokes happens early in Ernani.
In the first scene of Act One, Ernani describes his love for Elvira, whom he wants to steal from Don de Silva, her fiancé.
The cavatina is organized in the traditional double-aria format, but Verdi extends the first half, "Come rugiada al cespite," distorting its proportions in order to convey Ernani's obsession with Silva. Elvira's cavatina in the next scene is similarly expanded.
The later duet between Elvira and Don Carlos is one of the first examples of what would become a common formula for Verdi's duets: the first half is recitative-like in its quick text declamation, with melodic continuity provided by the orchestra.
In the second part the characters have contrasting melodies -- Carlos' lyrical and Elvira's aggressive -- representing their dissimilar feelings.
Most impressive is the "Recitative e Terzo" in the middle of Act Two.
A disguised Ernani confronts Elvira and Silva; the resulting trio is primarily a combination of solos by Ernani and a duet for Elvira and Ernani.
Later in the act, when Ernani makes his foolish, deadly deal with Silva, brass instruments intone a passage that first appeared in the overture and will sound again, at the close of the drama. The high point of the third act is Carlos' aria, "O de' verd'anni miei," in which he, waiting to learn if he has been elected Holy Roman Emperor, tells himself he must change and become an upright person.
As the aria progresses, the florid style of Carlos' previous music gives way to broader, more confident expression.
Verdi comes full circle in the finale of Act Four, in which Ernani must commit suicide in accordance with his pact with Silva.
As Silva reminds him of the deal, the solemn brass chords return to prod Ernani toward his death.



Показать сообщения:    

Текущее время: 08-Дек 14:52

Часовой пояс: UTC + 3


Вы не можете начинать темы
Вы не можете отвечать на сообщения
Вы не можете редактировать свои сообщения
Вы не можете удалять свои сообщения
Вы не можете голосовать в опросах
Вы не можете прикреплять файлы к сообщениям
Вы не можете скачивать файлы