(Classical) Ensemble Clement Janequin · Dominique Visse — Les plaisirs du palais · 2007, FLAC (tracks+.cue) lossless


Статистика раздачи [Обновить пиров]
Размер:  639 MB   |    Зарегистрирован:  8 месяцев 23 дня   |    Скачан:  0 раз

Полного источника не было: Никогда

 
   
 
 
 

[Цитировать]

Les Plaisirs du palais
Chansons à boire (et à manger) à la table de Gargantua
Жанр: classical
Страна-производитель диска: Italy
Год издания диска: 2007
Издатель (лейбл): Harmonia Mundi
Номер по каталогу: HML 5908224.25
Дата записи: июль 1994, июль 2000
Аудиокодек: FLAC
Тип рипа: tracks+.cue
Битрейт аудио: lossless
Продолжительность: 01:59:49
Источник: скачано с what.cd
Наличие сканов в содержимом раздачи: да
Исполнители: Ensemble Clément Janequin · Dominique Visse
Треклист:

CD 1 – Une fête chez Rabelais

01. Loyset Compere (c. 1440–1518) | Nous sommes de l’ordre de Saint Babouyn (3:52)
02. Pierre de la Rue (1460–1518) | Autant en emporte le vent (1:24)
03. Claudin de Sermisy (c. 1490–1562) | Je ne menge point de porc (1:03)
04. Nicolas Gombert (1490–1556) | Mille regres (3:11)
05. Ninot le Petit (1460–1502) | N’as tu poinct mis ton hault bonnet (2:00)
06. Claudin de Sermisy (c. 1490–1562) | Vien tost (2:45)
07. Anonymous | La Brosse (2:22)
08. Guiard | Or oiez les introites de taverne (2:21)
09. Vermont Primus (c. 1500–1558) | Ce n’est pas trop (1:44)
10. Adrian Willaert (c. 1490–1562) | Dessus le marché darras (1:10)
11. Nicolas Gombert (1490–1556) | Puisqu’ainsi est (3:12)
12. De Bussy (c. 1500 — c. 1550) | Las il n’a nul mal (2:25)
13. Claudin de Sermisy (c. 1490–1562) | Les je m’y plains, pièce d’orgue (1:39)
14. Nicolas Gombert (1490–1556) | Je prens congies (4:10)
15. Clemens non Papa (1510–1555) | Une fillette bien gorriere (0:52)
16. Clemens non Papa (1510–1555) | Imcessament suis triste et doloreux (3:41)
17. Nicolle des Cellers d’Hesdin (?–1538) | Ramonez moy ma cheminée (1:19)
18. Clemens non Papa (1510–1555) | Du laid tetin (3:01)
19. Josquin Desprez (c. 1440–1521) | Scaramella (1:08)
20. Anonymous | Pavane et Gagliarde de “La Guerre” (4:12)
21. Matthaeus Pipelare (c. 1450–1515) | Fors seulement (2:23)
22. Pierre Certon (1510–1572) | La, la, la, je ne l’ose dire (0:58)
23. Henry Fresneau (c. 1500 — c. 1545) | Souspir d’amours, pensée de plaisir (1:37)
24. Gabriel Coste (c. 1500 — c. 1540) | Celle fillette a qui le tetin point (1:28)
25. Nicolas Gombert (1490–1556) | A bien grant tort (2:15)
26. Henry Fresneau (c. 1500 — c. 1545) | La Fricassée (2:21)
Продолжительность: 00:58:34

Лог создания рипа

X Lossless Decoder version 20130127 (142.3)
XLD extraction logfile from 2013-03-07 16:13:35 +0100
Ensemble Clément Janequin, Dominique Visse / Une Fête Chez Rabelais
Used drive : HL-DT-ST DVDRW GA11NR (revision KR06)
Media type : Pressed CD
Ripper mode : XLD Secure Ripper
Disable audio cache : OK for the drive with a cache less than 1375KiB
Make use of C2 pointers : NO
Read offset correction : 667
Max retry count : 20
Gap status : Analyzed, Appended
TOC of the extracted CD
Track | Start | Length | Start sector | End sector
---------------------------------------------------------
1 | 00:00:32 | 03:51:38 | 32 | 17394
2 | 03:51:70 | 01:24:37 | 17395 | 23731
3 | 05:16:32 | 01:02:40 | 23732 | 28421
4 | 06:18:72 | 03:10:48 | 28422 | 42719
5 | 09:29:45 | 02:00:25 | 42720 | 51744
6 | 11:29:70 | 02:45:27 | 51745 | 64146
7 | 14:15:22 | 02:22:30 | 64147 | 74826
8 | 16:37:52 | 02:20:50 | 74827 | 85376
9 | 18:58:27 | 01:44:33 | 85377 | 93209
10 | 20:42:60 | 01:09:70 | 93210 | 98454
11 | 21:52:55 | 03:11:40 | 98455 | 112819
12 | 25:04:20 | 02:25:17 | 112820 | 123711
13 | 27:29:37 | 01:38:45 | 123712 | 131106
14 | 29:08:07 | 04:10:18 | 131107 | 149874
15 | 33:18:25 | 00:52:07 | 149875 | 153781
16 | 34:10:32 | 03:41:05 | 153782 | 170361
17 | 37:51:37 | 01:18:65 | 170362 | 176276
18 | 39:10:27 | 03:01:10 | 176277 | 189861
19 | 42:11:37 | 01:08:35 | 189862 | 194996
20 | 43:19:72 | 04:11:63 | 194997 | 213884
21 | 47:31:60 | 02:23:22 | 213885 | 224631
22 | 49:55:07 | 00:57:68 | 224632 | 228974
23 | 50:53:00 | 01:37:12 | 228975 | 236261
24 | 52:30:12 | 01:27:45 | 236262 | 242831
25 | 53:57:57 | 02:15:23 | 242832 | 252979
26 | 56:13:05 | 02:21:02 | 252980 | 263556
List of alternate offset correction values
# | Absolute | Relative | Confidence
------------------------------------------
1 | 2103 | 1436 | 9
AccurateRip Summary (DiscID: 0037a21b-040a6d01-510dba1a)
Track 01 : OK (v1, confidence 9/9, with different offset)
Track 02 : OK (v1, confidence 9/9, with different offset)
Track 03 : OK (v1, confidence 9/9, with different offset)
Track 04 : OK (v1, confidence 9/9, with different offset)
Track 05 : OK (v1, confidence 9/9, with different offset)
Track 06 : OK (v1, confidence 9/9, with different offset)
Track 07 : OK (v1, confidence 9/9, with different offset)
Track 08 : OK (v1, confidence 9/9, with different offset)
Track 09 : OK (v1, confidence 9/9, with different offset)
Track 10 : OK (v1, confidence 9/9, with different offset)
Track 11 : OK (v1, confidence 9/9, with different offset)
Track 12 : OK (v1, confidence 9/9, with different offset)
Track 13 : OK (v1, confidence 9/9, with different offset)
Track 14 : OK (v1, confidence 9/9, with different offset)
Track 15 : OK (v1, confidence 9/9, with different offset)
Track 16 : OK (v1, confidence 9/9, with different offset)
Track 17 : OK (v1, confidence 9/9, with different offset)
Track 18 : OK (v1, confidence 9/9, with different offset)
Track 19 : OK (v1, confidence 9/9, with different offset)
Track 20 : OK (v1, confidence 9/9, with different offset)
Track 21 : OK (v1, confidence 9/9, with different offset)
Track 22 : OK (v1, confidence 9/9, with different offset)
Track 23 : OK (v1, confidence 9/9, with different offset)
Track 24 : OK (v1, confidence 9/9, with different offset)
Track 25 : OK (v1, confidence 9/9, with different offset)
Track 26 : OK (v1, confidence 9/9, with different offset)
->All tracks accurately ripped.
All Tracks
Album gain : -0.22 dB
Peak : 0.960938
Statistics
Read error : 0
Jitter error (maybe fixed) : 0
Retry sector count : 0
Damaged sector count : 0
Track 01
Filename : /Users/dehors/Music/Les Plaisirs du Palais - Dominique Visse, Ensemble Clément Janequin (2007) [FLAC]/I - Une Fête chez Rabelais/01 - Loyset Compere (c.1440-1518) - Nous sommes de l'ordre de SaintBabouyn.flac
Pre-gap length : 00:02:32
Track gain : -0.65 dB
Peak : 0.701691
CRC32 hash (test run) : 81711F0B
CRC32 hash : 81711F0B
CRC32 hash (skip zero) : 75612E43
AccurateRip v1 signature : 35AC208D (198B9404 w/correction)
AccurateRip v2 signature : 54A542D8
->Accurately ripped with different offset (v1, confidence 9/9, offset +1436)
Statistics
Read error : 0
Jitter error (maybe fixed) : 0
Retry sector count : 0
Damaged sector count : 0
Track 02
Filename : /Users/dehors/Music/Les Plaisirs du Palais - Dominique Visse, Ensemble Clément Janequin (2007) [FLAC]/I - Une Fête chez Rabelais/02 - Pierre De La Rue (1460-1518) - Autant en emporte le vent.flac
Pre-gap length : 00:02:37
Track gain : 1.78 dB
Peak : 0.513336
CRC32 hash (test run) : 4A0EAFA5
CRC32 hash : 4A0EAFA5
CRC32 hash (skip zero) : 4FAEDE37
AccurateRip v1 signature : 8D9B3E91 (408CAC83 w/correction)
AccurateRip v2 signature : 4A530A46
->Accurately ripped with different offset (v1, confidence 9/9, offset +1436)
Statistics
Read error : 0
Jitter error (maybe fixed) : 0
Retry sector count : 0
Damaged sector count : 0
Track 03
Filename : /Users/dehors/Music/Les Plaisirs du Palais - Dominique Visse, Ensemble Clément Janequin (2007) [FLAC]/I - Une Fête chez Rabelais/03 - Claudin De Sermisy (c.1490-1562) - Je ne menge point de porc.flac
Pre-gap length : 00:04:25
Track gain : -4.33 dB
Peak : 0.905701
CRC32 hash (test run) : 3159E640
CRC32 hash : 3159E640
CRC32 hash (skip zero) : 2A535515
AccurateRip v1 signature : B29197DE (B87BAB53 w/correction)
AccurateRip v2 signature : 0BD6900A
->Accurately ripped with different offset (v1, confidence 9/9, offset +1436)
Statistics
Read error : 0
Jitter error (maybe fixed) : 0
Retry sector count : 0
Damaged sector count : 0
Track 04
Filename : /Users/dehors/Music/Les Plaisirs du Palais - Dominique Visse, Ensemble Clément Janequin (2007) [FLAC]/I - Une Fête chez Rabelais/04 - Nicolas Gombert (1490-1556) - Mille regres.flac
Pre-gap length : 00:03:15
Track gain : 0.53 dB
Peak : 0.572418
CRC32 hash (test run) : 408EDD90
CRC32 hash : 408EDD90
CRC32 hash (skip zero) : E53C0CE6
AccurateRip v1 signature : 0C64D5B5 (A1A6FE2B w/correction)
AccurateRip v2 signature : 9BAFFAB0
->Accurately ripped with different offset (v1, confidence 9/9, offset +1436)
Statistics
Read error : 0
Jitter error (maybe fixed) : 0
Retry sector count : 0
Damaged sector count : 0
Track 05
Filename : /Users/dehors/Music/Les Plaisirs du Palais - Dominique Visse, Ensemble Clément Janequin (2007) [FLAC]/I - Une Fête chez Rabelais/05 - Ninot le Petit (1460 -1502) - N'a tu poinct mis ton hault bonnet.flac
Pre-gap length : 00:02:63
Track gain : -1.19 dB
Peak : 0.892456
CRC32 hash (test run) : F79E095C
CRC32 hash : F79E095C
CRC32 hash (skip zero) : 2F494F58
AccurateRip v1 signature : 18604585 (6FACC7B1 w/correction)
AccurateRip v2 signature : 3296DBDD
->Accurately ripped with different offset (v1, confidence 9/9, offset +1436)
Statistics
Read error : 0
Jitter error (maybe fixed) : 0
Retry sector count : 0
Damaged sector count : 0
Track 06
Filename : /Users/dehors/Music/Les Plaisirs du Palais - Dominique Visse, Ensemble Clément Janequin (2007) [FLAC]/I - Une Fête chez Rabelais/06 - Claudin De Sermisy (c.1490-1562) - Vien tost.flac
Pre-gap length : 00:03:12
Track gain : 2.42 dB
Peak : 0.513977
CRC32 hash (test run) : F536C42F
CRC32 hash : F536C42F
CRC32 hash (skip zero) : F7371675
AccurateRip v1 signature : 8D4652B0 (755AA431 w/correction)
AccurateRip v2 signature : 6049517C
->Accurately ripped with different offset (v1, confidence 9/9, offset +1436)
Statistics
Read error : 0
Jitter error (maybe fixed) : 0
Retry sector count : 0
Damaged sector count : 0
Track 07
Filename : /Users/dehors/Music/Les Plaisirs du Palais - Dominique Visse, Ensemble Clément Janequin (2007) [FLAC]/I - Une Fête chez Rabelais/07 - Anonymous - La Brosse.flac
Pre-gap length : 00:03:40
Track gain : 5.65 dB
Peak : 0.335114
CRC32 hash (test run) : 9C754095
CRC32 hash : 9C754095
CRC32 hash (skip zero) : 4102B552
AccurateRip v1 signature : 2264C290 (7973059D w/correction)
AccurateRip v2 signature : 33BDE571
->Accurately ripped with different offset (v1, confidence 9/9, offset +1436)
Statistics
Read error : 0
Jitter error (maybe fixed) : 0
Retry sector count : 0
Damaged sector count : 0
Track 08
Filename : /Users/dehors/Music/Les Plaisirs du Palais - Dominique Visse, Ensemble Clément Janequin (2007) [FLAC]/I - Une Fête chez Rabelais/08 - Guiard - Or oiez les introites de taverne.flac
Pre-gap length : 00:03:70
Track gain : -3.03 dB
Peak : 0.826782
CRC32 hash (test run) : A1AA194F
CRC32 hash : A1AA194F
CRC32 hash (skip zero) : 21F93DA8
AccurateRip v1 signature : 9AB5C123 (60B6C564 w/correction)
AccurateRip v2 signature : 8A7A113B
->Accurately ripped with different offset (v1, confidence 9/9, offset +1436)
Statistics
Read error : 0
Jitter error (maybe fixed) : 0
Retry sector count : 0
Damaged sector count : 0
Track 09
Filename : /Users/dehors/Music/Les Plaisirs du Palais - Dominique Visse, Ensemble Clément Janequin (2007) [FLAC]/I - Une Fête chez Rabelais/09 - Vermont Primus (c.1500-1558) - Ce n'est pas trop.flac
Pre-gap length : 00:04:45
Track gain : 3.98 dB
Peak : 0.398621
CRC32 hash (test run) : A0D53AE9
CRC32 hash : A0D53AE9
CRC32 hash (skip zero) : 40185696
AccurateRip v1 signature : 83E038CD (8130C44A w/correction)
AccurateRip v2 signature : E929C04C
->Accurately ripped with different offset (v1, confidence 9/9, offset +1436)
Statistics
Read error : 0
Jitter error (maybe fixed) : 0
Retry sector count : 0
Damaged sector count : 0
Track 10
Filename : /Users/dehors/Music/Les Plaisirs du Palais - Dominique Visse, Ensemble Clément Janequin (2007) [FLAC]/I - Une Fête chez Rabelais/10 - Adrian Willaert (c.1490-1562) - Dessus le marche darras.flac
Pre-gap length : 00:05:01
Track gain : -3.57 dB
Peak : 0.865173
CRC32 hash (test run) : D77B97BF
CRC32 hash : D77B97BF
CRC32 hash (skip zero) : 36A6571D
AccurateRip v1 signature : A9BEA2D1 (39CD94E8 w/correction)
AccurateRip v2 signature : BF81BA8C
->Accurately ripped with different offset (v1, confidence 9/9, offset +1436)
Statistics
Read error : 0
Jitter error (maybe fixed) : 0
Retry sector count : 0
Damaged sector count : 0
Track 11
Filename : /Users/dehors/Music/Les Plaisirs du Palais - Dominique Visse, Ensemble Clément Janequin (2007) [FLAC]/I - Une Fête chez Rabelais/11 - Nicolas Gombert (1490-1556) - Puisqu'ainsi est.flac
Pre-gap length : 00:03:73
Track gain : 2.33 dB
Peak : 0.627350
CRC32 hash (test run) : A4C9A0FF
CRC32 hash : A4C9A0FF
CRC32 hash (skip zero) : 59829099
AccurateRip v1 signature : A3F964F3 (9C047941 w/correction)
AccurateRip v2 signature : 1A718C5C
->Accurately ripped with different offset (v1, confidence 9/9, offset +1436)
Statistics
Read error : 0
Jitter error (maybe fixed) : 0
Retry sector count : 0
Damaged sector count : 0
Track 12
Filename : /Users/dehors/Music/Les Plaisirs du Palais - Dominique Visse, Ensemble Clément Janequin (2007) [FLAC]/I - Une Fête chez Rabelais/12 - De Bussy (c.1500-c.1550) - Las il n'a nul mal.flac
Pre-gap length : 00:04:38
Track gain : 5.51 dB
Peak : 0.454590
CRC32 hash (test run) : 0FB1E83B
CRC32 hash : 0FB1E83B
CRC32 hash (skip zero) : 13D732E2
AccurateRip v1 signature : 57B6255B (DD7D6AA6 w/correction)
AccurateRip v2 signature : FF5158D4
->Accurately ripped with different offset (v1, confidence 9/9, offset +1436)
Statistics
Read error : 0
Jitter error (maybe fixed) : 0
Retry sector count : 0
Damaged sector count : 0
Track 13
Filename : /Users/dehors/Music/Les Plaisirs du Palais - Dominique Visse, Ensemble Clément Janequin (2007) [FLAC]/I - Une Fête chez Rabelais/13 - Claudin De Sermisy (c.1490-1562) - Les je m'y plains.flac
Pre-gap length : 00:04:03
Track gain : 8.18 dB
Peak : 0.204590
CRC32 hash (test run) : 79148E6A
CRC32 hash : 79148E6A
CRC32 hash (skip zero) : B44D1A69
AccurateRip v1 signature : CD7DCAF5 (49932CF5 w/correction)
AccurateRip v2 signature : 1AFEF0C3
->Accurately ripped with different offset (v1, confidence 9/9, offset +1436)
Statistics
Read error : 0
Jitter error (maybe fixed) : 0
Retry sector count : 0
Damaged sector count : 0
Track 14
Filename : /Users/dehors/Music/Les Plaisirs du Palais - Dominique Visse, Ensemble Clément Janequin (2007) [FLAC]/I - Une Fête chez Rabelais/14 - Nicolas Gombert (1490-1556) - Je prens congies.flac
Pre-gap length : 00:02:50
Track gain : 1.78 dB
Peak : 0.590546
CRC32 hash (test run) : 02AE64CC
CRC32 hash : 02AE64CC
CRC32 hash (skip zero) : 00A3E968
AccurateRip v1 signature : 768CEE5F (20F3F5B2 w/correction)
AccurateRip v2 signature : 3B7AF95F
->Accurately ripped with different offset (v1, confidence 9/9, offset +1436)
Statistics
Read error : 0
Jitter error (maybe fixed) : 0
Retry sector count : 0
Damaged sector count : 0
Track 15
Filename : /Users/dehors/Music/Les Plaisirs du Palais - Dominique Visse, Ensemble Clément Janequin (2007) [FLAC]/I - Une Fête chez Rabelais/15 - Clemens Non Papa (1510-1555) - Une fillette bien gorriere.flac
Pre-gap length : 00:04:43
Track gain : -0.96 dB
Peak : 0.693542
CRC32 hash (test run) : EC9F1924
CRC32 hash : EC9F1924
CRC32 hash (skip zero) : 4CD72979
AccurateRip v1 signature : 43A631B9 (5F128AD3 w/correction)
AccurateRip v2 signature : 1A56DA65
->Accurately ripped with different offset (v1, confidence 9/9, offset +1436)
Statistics
Read error : 0
Jitter error (maybe fixed) : 0
Retry sector count : 0
Damaged sector count : 0
Track 16
Filename : /Users/dehors/Music/Les Plaisirs du Palais - Dominique Visse, Ensemble Clément Janequin (2007) [FLAC]/I - Une Fête chez Rabelais/16 - Clemens Non Papa (1510-1555) - Imcessament suis triste et doloreux.flac
Pre-gap length : 00:04:06
Track gain : 3.30 dB
Peak : 0.628418
CRC32 hash (test run) : B8D3317A
CRC32 hash : B8D3317A
CRC32 hash (skip zero) : FA0C5AF0
AccurateRip v1 signature : 52402D3F (673BE8BE w/correction)
AccurateRip v2 signature : 42083266
->Accurately ripped with different offset (v1, confidence 9/9, offset +1436)
Statistics
Read error : 0
Jitter error (maybe fixed) : 0
Retry sector count : 0
Damaged sector count : 0
Track 17
Filename : /Users/dehors/Music/Les Plaisirs du Palais - Dominique Visse, Ensemble Clément Janequin (2007) [FLAC]/I - Une Fête chez Rabelais/17 - Nicolle Des Cellers d'Hesdin (????-1538) - Ramonez moy ma cheminee.flac
Pre-gap length : 00:03:42
Track gain : -0.28 dB
Peak : 0.721863
CRC32 hash (test run) : E16197FC
CRC32 hash : E16197FC
CRC32 hash (skip zero) : 95916847
AccurateRip v1 signature : D8865761 (F707BD97 w/correction)
AccurateRip v2 signature : C992A988
->Accurately ripped with different offset (v1, confidence 9/9, offset +1436)
Statistics
Read error : 0
Jitter error (maybe fixed) : 0
Retry sector count : 0
Damaged sector count : 0
Track 18
Filename : /Users/dehors/Music/Les Plaisirs du Palais - Dominique Visse, Ensemble Clément Janequin (2007) [FLAC]/I - Une Fête chez Rabelais/18 - Clemens Non Papa (1510-1555) - Du laid tetin.flac
Pre-gap length : 00:03:57
Track gain : -1.64 dB
Peak : 0.960938
CRC32 hash (test run) : EF807F54
CRC32 hash : EF807F54
CRC32 hash (skip zero) : 338BC763
AccurateRip v1 signature : E9A3981D (8512EA06 w/correction)
AccurateRip v2 signature : DD87E6D7
->Accurately ripped with different offset (v1, confidence 9/9, offset +1436)
Statistics
Read error : 0
Jitter error (maybe fixed) : 0
Retry sector count : 0
Damaged sector count : 0
Track 19
Filename : /Users/dehors/Music/Les Plaisirs du Palais - Dominique Visse, Ensemble Clément Janequin (2007) [FLAC]/I - Une Fête chez Rabelais/19 - Josquin Desprez (c.1440-1521) - Scaramella.flac
Pre-gap length : 00:03:67
Track gain : -2.95 dB
Peak : 0.832184
CRC32 hash (test run) : CF57E849
CRC32 hash : CF57E849
CRC32 hash (skip zero) : 2B693350
AccurateRip v1 signature : ADE9871B (A76672FA w/correction)
AccurateRip v2 signature : D192F47D
->Accurately ripped with different offset (v1, confidence 9/9, offset +1436)
Statistics
Read error : 0
Jitter error (maybe fixed) : 0
Retry sector count : 0
Damaged sector count : 0
Track 20
Filename : /Users/dehors/Music/Les Plaisirs du Palais - Dominique Visse, Ensemble Clément Janequin (2007) [FLAC]/I - Une Fête chez Rabelais/20 - Anonymous - Pavane et Gagliarde de «La Guerre».flac
Pre-gap length : 00:04:26
Track gain : 4.22 dB
Peak : 0.483154
CRC32 hash (test run) : 1AAC91A6
CRC32 hash : 1AAC91A6
CRC32 hash (skip zero) : 7B26030A
AccurateRip v1 signature : BCA0E6C5 (860E7C1D w/correction)
AccurateRip v2 signature : 6315AEB8
->Accurately ripped with different offset (v1, confidence 9/9, offset +1436)
Statistics
Read error : 0
Jitter error (maybe fixed) : 0
Retry sector count : 0
Damaged sector count : 0
Track 21
Filename : /Users/dehors/Music/Les Plaisirs du Palais - Dominique Visse, Ensemble Clément Janequin (2007) [FLAC]/I - Une Fête chez Rabelais/21 - Matthaeus Pipelare (c.1450-1515) - Fors Seulement.flac
Pre-gap length : 00:05:15
Track gain : 6.08 dB
Peak : 0.356262
CRC32 hash (test run) : D299E1EB
CRC32 hash : D299E1EB
CRC32 hash (skip zero) : 7C4E964A
AccurateRip v1 signature : 46C1A54E (1ADBA32D w/correction)
AccurateRip v2 signature : 9BFD70AF
->Accurately ripped with different offset (v1, confidence 9/9, offset +1436)
Statistics
Read error : 0
Jitter error (maybe fixed) : 0
Retry sector count : 0
Damaged sector count : 0
Track 22
Filename : /Users/dehors/Music/Les Plaisirs du Palais - Dominique Visse, Ensemble Clément Janequin (2007) [FLAC]/I - Une Fête chez Rabelais/22 - Pierre Certon (1510-1572) - La, la, la, je ne l'ose dire.flac
Pre-gap length : 00:04:36
Track gain : 0.60 dB
Peak : 0.644470
CRC32 hash (test run) : 76A20A52
CRC32 hash : 76A20A52
CRC32 hash (skip zero) : 07E3371D
AccurateRip v1 signature : A2836195 (4E3D26AD w/correction)
AccurateRip v2 signature : B83AA04D
->Accurately ripped with different offset (v1, confidence 9/9, offset +1436)
Statistics
Read error : 0
Jitter error (maybe fixed) : 0
Retry sector count : 0
Damaged sector count : 0
Track 23
Filename : /Users/dehors/Music/Les Plaisirs du Palais - Dominique Visse, Ensemble Clément Janequin (2007) [FLAC]/I - Une Fête chez Rabelais/23 - Henry Fresneau (c.1500-c.1545) - Souspir d'amours, pensee de plaisir.flac
Pre-gap length : 00:04:30
Track gain : 3.67 dB
Peak : 0.445251
CRC32 hash (test run) : D31874EE
CRC32 hash : D31874EE
CRC32 hash (skip zero) : 98EE5A84
AccurateRip v1 signature : 89D33E90 (C8C84C46 w/correction)
AccurateRip v2 signature : F150126D
->Accurately ripped with different offset (v1, confidence 9/9, offset +1436)
Statistics
Read error : 0
Jitter error (maybe fixed) : 0
Retry sector count : 0
Damaged sector count : 0
Track 24
Filename : /Users/dehors/Music/Les Plaisirs du Palais - Dominique Visse, Ensemble Clément Janequin (2007) [FLAC]/I - Une Fête chez Rabelais/24 - Gabriel Coste (c.1500-c.1540) - Celle fillette a qui le tetin point.flac
Pre-gap length : 00:04:42
Track gain : 2.33 dB
Peak : 0.736816
CRC32 hash (test run) : E210690E
CRC32 hash : E210690E
CRC32 hash (skip zero) : 3C9B740A
AccurateRip v1 signature : 2413E38A (32AA4887 w/correction)
AccurateRip v2 signature : F1960C22
->Accurately ripped with different offset (v1, confidence 9/9, offset +1436)
Statistics
Read error : 0
Jitter error (maybe fixed) : 0
Retry sector count : 0
Damaged sector count : 0
Track 25
Filename : /Users/dehors/Music/Les Plaisirs du Palais - Dominique Visse, Ensemble Clément Janequin (2007) [FLAC]/I - Une Fête chez Rabelais/25 - Nicolas Gombert (1490-1556) - A bien grant tort.flac
Pre-gap length : 00:04:11
Track gain : 4.69 dB
Peak : 0.357941
CRC32 hash (test run) : 10D4B421
CRC32 hash : 10D4B421
CRC32 hash (skip zero) : 70C643E2
AccurateRip v1 signature : 1FFF2C82 (3BFC3210 w/correction)
AccurateRip v2 signature : F7308907
->Accurately ripped with different offset (v1, confidence 9/9, offset +1436)
Statistics
Read error : 0
Jitter error (maybe fixed) : 0
Retry sector count : 0
Damaged sector count : 0
Track 26
Filename : /Users/dehors/Music/Les Plaisirs du Palais - Dominique Visse, Ensemble Clément Janequin (2007) [FLAC]/I - Une Fête chez Rabelais/26 - Henry Fresneau (c.1500-c.1545) - La Fricassee.flac
Pre-gap length : 00:03:35
Track gain : -2.01 dB
Peak : 0.773590
CRC32 hash (test run) : 51FA6133
CRC32 hash : 51FA6133
CRC32 hash (skip zero) : 5DACBEBA
AccurateRip v1 signature : 587DF3C8 (8BE7F51A w/correction)
AccurateRip v2 signature : 7CFA6054
->Accurately ripped with different offset (v1, confidence 9/9, offset +1436)
Statistics
Read error : 0
Jitter error (maybe fixed) : 0
Retry sector count : 0
Damaged sector count : 0
No errors occurred
End of status report

Содержание индексной карты (.CUE)

TITLE "Une fête chez Rabelais"
PERFORMER "Ensemble Clément Janequin · Dominique Visse"
REM DATE "2007"
REM DISCNUMBER 1
REM DISCID 510DBA1A
REM REPLAYGAIN_ALBUM_GAIN -0.22 dB
REM REPLAYGAIN_ALBUM_PEAK 0.960938
FILE "01. Nous sommes de l’ordre de Saint Babouyn.flac" WAVE
TRACK 01 AUDIO
TITLE "Nous sommes de l’ordre de Saint Babouyn"
ISRC FRZ149425010
REM REPLAYGAIN_TRACK_GAIN -0.65 dB
REM REPLAYGAIN_TRACK_PEAK 0.701691
INDEX 00 00:00:00
INDEX 01 00:00:32
TRACK 02 AUDIO
TITLE "Autant en emporte le vent"
ISRC FRZ149425020
REM REPLAYGAIN_TRACK_GAIN 1.78 dB
REM REPLAYGAIN_TRACK_PEAK 0.513336
INDEX 00 03:49:33
FILE "02. Autant en emporte le vent.flac" WAVE
INDEX 01 00:00:00
TRACK 03 AUDIO
TITLE "Je ne menge point de porc"
ISRC FRZ149425030
REM REPLAYGAIN_TRACK_GAIN -4.33 dB
REM REPLAYGAIN_TRACK_PEAK 0.905701
INDEX 00 01:20:12
FILE "03. Je ne menge point de porc.flac" WAVE
INDEX 01 00:00:00
TRACK 04 AUDIO
TITLE "Mille regres"
ISRC FRZ149425040
REM REPLAYGAIN_TRACK_GAIN 0.53 dB
REM REPLAYGAIN_TRACK_PEAK 0.572418
INDEX 00 00:59:25
FILE "04. Mille regres.flac" WAVE
INDEX 01 00:00:00
TRACK 05 AUDIO
TITLE "N’as tu poinct mis ton hault bonnet"
ISRC FRZ149425050
REM REPLAYGAIN_TRACK_GAIN -1.19 dB
REM REPLAYGAIN_TRACK_PEAK 0.892456
INDEX 00 03:07:60
FILE "05. N’as tu poinct mis ton hault bonnet.flac" WAVE
INDEX 01 00:00:00
TRACK 06 AUDIO
TITLE "Vien tost"
ISRC FRZ149425060
REM REPLAYGAIN_TRACK_GAIN 2.42 dB
REM REPLAYGAIN_TRACK_PEAK 0.513977
INDEX 00 01:57:13
FILE "06. Vien tost.flac" WAVE
INDEX 01 00:00:00
TRACK 07 AUDIO
TITLE "La Brosse"
ISRC FRZ149425070
REM REPLAYGAIN_TRACK_GAIN 5.65 dB
REM REPLAYGAIN_TRACK_PEAK 0.335114
INDEX 00 02:41:62
FILE "07. La Brosse.flac" WAVE
INDEX 01 00:00:00
TRACK 08 AUDIO
TITLE "Or oiez les introites de taverne"
ISRC FRZ149425080
REM REPLAYGAIN_TRACK_GAIN -3.03 dB
REM REPLAYGAIN_TRACK_PEAK 0.826782
INDEX 00 02:18:35
FILE "08. Or oiez les introites de taverne.flac" WAVE
INDEX 01 00:00:00
TRACK 09 AUDIO
TITLE "Ce n’est pas trop"
ISRC FRZ149425090
REM REPLAYGAIN_TRACK_GAIN 3.98 dB
REM REPLAYGAIN_TRACK_PEAK 0.398621
INDEX 00 02:16:05
FILE "09. Ce n’est pas trop.flac" WAVE
INDEX 01 00:00:00
TRACK 10 AUDIO
TITLE "Dessus le marché darras"
ISRC FRZ149425100
REM REPLAYGAIN_TRACK_GAIN -3.57 dB
REM REPLAYGAIN_TRACK_PEAK 0.865173
INDEX 00 01:39:32
FILE "10. Dessus le marché darras.flac" WAVE
INDEX 01 00:00:00
TRACK 11 AUDIO
TITLE "Puisqu’ainsi est"
ISRC FRZ149425110
REM REPLAYGAIN_TRACK_GAIN 2.33 dB
REM REPLAYGAIN_TRACK_PEAK 0.627350
INDEX 00 01:05:72
FILE "11. Puisqu’ainsi est.flac" WAVE
INDEX 01 00:00:00
TRACK 12 AUDIO
TITLE "Las il n’a nul mal"
ISRC FRZ149425120
REM REPLAYGAIN_TRACK_GAIN 5.51 dB
REM REPLAYGAIN_TRACK_PEAK 0.454590
INDEX 00 03:07:02
FILE "12. Las il n’a nul mal.flac" WAVE
INDEX 01 00:00:00
TRACK 13 AUDIO
TITLE "Les je m’y plains, pièce d’orgue"
ISRC FRZ149425130
REM REPLAYGAIN_TRACK_GAIN 8.18 dB
REM REPLAYGAIN_TRACK_PEAK 0.204590
INDEX 00 02:21:14
FILE "13. Les je m’y plains, pièce d’orgue.flac" WAVE
INDEX 01 00:00:00
TRACK 14 AUDIO
TITLE "Je prens congies"
ISRC FRZ149425140
REM REPLAYGAIN_TRACK_GAIN 1.78 dB
REM REPLAYGAIN_TRACK_PEAK 0.590546
INDEX 00 01:35:70
FILE "14. Je prens congies.flac" WAVE
INDEX 01 00:00:00
TRACK 15 AUDIO
TITLE "Une fillette bien gorriere"
ISRC FRZ149425150
REM REPLAYGAIN_TRACK_GAIN -0.96 dB
REM REPLAYGAIN_TRACK_PEAK 0.693542
INDEX 00 04:05:50
FILE "15. Une fillette bien gorriere.flac" WAVE
INDEX 01 00:00:00
TRACK 16 AUDIO
TITLE "Imcessament suis triste et doloreux"
ISRC FRZ149425160
REM REPLAYGAIN_TRACK_GAIN 3.30 dB
REM REPLAYGAIN_TRACK_PEAK 0.628418
INDEX 00 00:48:01
FILE "16. Imcessament suis triste et doloreux.flac" WAVE
INDEX 01 00:00:00
TRACK 17 AUDIO
TITLE "Ramonez moy ma cheminée"
ISRC FRZ149425170
REM REPLAYGAIN_TRACK_GAIN -0.28 dB
REM REPLAYGAIN_TRACK_PEAK 0.721863
INDEX 00 03:37:38
FILE "17. Ramonez moy ma cheminée.flac" WAVE
INDEX 01 00:00:00
TRACK 18 AUDIO
TITLE "Du laid tetin"
ISRC FRZ149425180
REM REPLAYGAIN_TRACK_GAIN -1.64 dB
REM REPLAYGAIN_TRACK_PEAK 0.960938
INDEX 00 01:15:08
FILE "18. Du laid tetin.flac" WAVE
INDEX 01 00:00:00
TRACK 19 AUDIO
TITLE "Scaramella"
ISRC FRZ149425190
REM REPLAYGAIN_TRACK_GAIN -2.95 dB
REM REPLAYGAIN_TRACK_PEAK 0.832184
INDEX 00 02:57:18
FILE "19. Scaramella.flac" WAVE
INDEX 01 00:00:00
TRACK 20 AUDIO
TITLE "Pavane et Gagliarde de “La Guerre”"
ISRC FRZ149425200
REM REPLAYGAIN_TRACK_GAIN 4.22 dB
REM REPLAYGAIN_TRACK_PEAK 0.483154
INDEX 00 01:04:09
FILE "20. Pavane et Gagliarde de “La Guerre”.flac" WAVE
INDEX 01 00:00:00
TRACK 21 AUDIO
TITLE "Fors seulement"
ISRC FRZ149425210
REM REPLAYGAIN_TRACK_GAIN 6.08 dB
REM REPLAYGAIN_TRACK_PEAK 0.356262
INDEX 00 04:06:48
FILE "21. Fors seulement.flac" WAVE
INDEX 01 00:00:00
TRACK 22 AUDIO
TITLE "La, la, la, je ne l’ose dire"
ISRC FRZ149425220
REM REPLAYGAIN_TRACK_GAIN 0.60 dB
REM REPLAYGAIN_TRACK_PEAK 0.644470
INDEX 00 02:18:61
FILE "22. La, la, la, je ne l’ose dire.flac" WAVE
INDEX 01 00:00:00
TRACK 23 AUDIO
TITLE "Souspir d’amours, pensée de plaisir"
ISRC FRZ149425230
REM REPLAYGAIN_TRACK_GAIN 3.67 dB
REM REPLAYGAIN_TRACK_PEAK 0.445251
INDEX 00 00:53:38
FILE "23. Souspir d’amours, pensée de plaisir.flac" WAVE
INDEX 01 00:00:00
TRACK 24 AUDIO
TITLE "Celle fillette a qui le tetin point"
ISRC FRZ149425240
REM REPLAYGAIN_TRACK_GAIN 2.33 dB
REM REPLAYGAIN_TRACK_PEAK 0.736816
INDEX 00 01:32:45
FILE "24. Celle fillette a qui le tetin point.flac" WAVE
INDEX 01 00:00:00
TRACK 25 AUDIO
TITLE "A bien grant tort"
ISRC FRZ149425250
REM REPLAYGAIN_TRACK_GAIN 4.69 dB
REM REPLAYGAIN_TRACK_PEAK 0.357941
INDEX 00 01:23:34
FILE "25. A bien grant tort.flac" WAVE
INDEX 01 00:00:00
TRACK 26 AUDIO
TITLE "La Fricassée"
ISRC FRZ149425260
REM REPLAYGAIN_TRACK_GAIN -2.01 dB
REM REPLAYGAIN_TRACK_PEAK 0.773590
INDEX 00 02:11:63
FILE "26. La Fricassée.flac" WAVE
INDEX 01 00:00:00

CD 2 – Les plaisirs du palais

01. Clemens non Papa (1510–1555) | Prière devant le repas : O souverain Pasteur (2:18)
02. Decarella (fl. c. 1550) | En Tour la feste Saint Martin (1:36)
03. Pierre Certon (1510–1572) | En languissant avoir secours j’attens (2:02)
04. Anonymous | C’est tout abus (3:31)
05. Anonymous | Triquedon daine (1:06)
06. Claudin de Sermisy (c. 1490–1562) | Hau, hau je boys (1:30)
07. Benoit Appenzeller (c. 1480–1558) | Je pers espoir (2:53)
08. Claudin de Sermisy (c. 1490–1562) | Auprès de vous à 2 voix (1:59)
09. Dambert | Secouez moy (1:33)
10. Anonymous | Si vous n’avez madame (2:30)
11. Nicolas Gombert (1490–1556) | La chasse au lièvre (7:39)
12. Adrien Leroy (c. 1520–1598) | Bransle de Champaigne / Allemande du pied de cheval / Bransle de Poictou (6:22)
13. Pierre Certon (1510–1572) | Que n’est elle aupres de moy (2:20)
14. Claudin de Sermisy (c. 1490–1562) | Auprès de vous à 4 voix (2:20)
15. Josquin Baston (fl. 1542–1563) | Ung souvenir me conforte (3:13)
16. Mittantier (fl. 1536–1547) | Laissons amour (2:32)
17. Guillaume le Heurteur (fl. 1530–1545) | Mirelaridon (1:26)
18. Benoit Appenzeller (c. 1480–1558) | Musae Jovis (6:43)
19. Eustache Barbion | Pour quelque paine que j’endure (2:27)
20. Nicolle des Cellers d’Hesdin (?–1538) | Ung vray musicien (1:35)
21. Tylman Susato (c. 1500–1561) | Prière apres le repas : Pere esternel (3:42)
Продолжительность: 01:01:15

Лог создания рипа

X Lossless Decoder version 20130127 (142.3)
XLD extraction logfile from 2013-03-07 17:11:23 +0100
Ensemble Clément Janequin, Dominique Visse / Les Plaisirs Du Palais
Used drive : HL-DT-ST DVDRW GA11NR (revision KR06)
Media type : Pressed CD
Ripper mode : XLD Secure Ripper
Disable audio cache : OK for the drive with a cache less than 1375KiB
Make use of C2 pointers : NO
Read offset correction : 667
Max retry count : 20
Gap status : Analyzed, Appended
TOC of the extracted CD
Track | Start | Length | Start sector | End sector
---------------------------------------------------------
1 | 00:00:00 | 02:17:55 | 0 | 10329
2 | 02:17:55 | 01:36:02 | 10330 | 17531
3 | 03:53:57 | 02:02:28 | 17532 | 26709
4 | 05:56:10 | 03:30:50 | 26710 | 42509
5 | 09:26:60 | 01:06:00 | 42510 | 47459
6 | 10:32:60 | 01:30:00 | 47460 | 54209
7 | 12:02:60 | 02:53:15 | 54210 | 67199
8 | 14:56:00 | 01:59:05 | 67200 | 76129
9 | 16:55:05 | 01:32:55 | 76130 | 83084
10 | 18:27:60 | 02:30:25 | 83085 | 94359
11 | 20:58:10 | 07:38:55 | 94360 | 128764
12 | 28:36:65 | 06:22:07 | 128765 | 157421
13 | 34:58:72 | 02:20:03 | 157422 | 167924
14 | 37:19:00 | 02:19:42 | 167925 | 178391
15 | 39:38:42 | 03:12:45 | 178392 | 192836
16 | 42:51:12 | 02:31:50 | 192837 | 204211
17 | 45:22:62 | 01:25:68 | 204212 | 210654
18 | 46:48:55 | 06:43:00 | 210655 | 240879
19 | 53:31:55 | 02:26:52 | 240880 | 251881
20 | 55:58:32 | 01:34:45 | 251882 | 258976
21 | 57:33:02 | 03:42:23 | 258977 | 275649
List of alternate offset correction values
# | Absolute | Relative | Confidence
------------------------------------------
1 | 103 | -564 | 9
AccurateRip Summary (DiscID: 002a8734-02a2f0d4-080e5b15)
Track 01 : OK (v1+v2, confidence 9/9, with different offset)
Track 02 : OK (v1+v2, confidence 9/9, with different offset)
Track 03 : OK (v1+v2, confidence 9/9, with different offset)
Track 04 : OK (v1+v2, confidence 9/9, with different offset)
Track 05 : OK (v1+v2, confidence 9/9, with different offset)
Track 06 : OK (v1+v2, confidence 9/9, with different offset)
Track 07 : OK (v1+v2, confidence 9/9, with different offset)
Track 08 : OK (v1+v2, confidence 9/9, with different offset)
Track 09 : OK (v1, confidence 7/7, with different offset)
Track 10 : OK (v1+v2, confidence 9/9, with different offset)
Track 11 : OK (v1+v2, confidence 9/9, with different offset)
Track 12 : OK (v1+v2, confidence 9/9, with different offset)
Track 13 : OK (v1+v2, confidence 9/9, with different offset)
Track 14 : OK (v1+v2, confidence 9/9, with different offset)
Track 15 : OK (v1+v2, confidence 9/9, with different offset)
Track 16 : OK (v1+v2, confidence 9/9, with different offset)
Track 17 : OK (v1+v2, confidence 9/9, with different offset)
Track 18 : OK (v1+v2, confidence 9/9, with different offset)
Track 19 : OK (v1+v2, confidence 9/9, with different offset)
Track 20 : OK (v1+v2, confidence 9/9, with different offset)
Track 21 : OK (v1+v2, confidence 9/9, with different offset)
->All tracks accurately ripped.
All Tracks
Album gain : -3.60 dB
Peak : 0.951385
Statistics
Read error : 0
Jitter error (maybe fixed) : 0
Retry sector count : 0
Damaged sector count : 0
Track 01
Filename : /Users/dehors/Music/Les Plaisirs du Palais - Dominique Visse, Ensemble Clément Janequin (2007) [FLAC]/II - Les Plaisirs du Palais/01 - Clemens Non Papa (1510-1555) - Prière Devant Le Repas, O souverain Pasteur.flac
Pre-gap length : 00:02:00
Track gain : -3.43 dB
Peak : 0.921753
CRC32 hash (test run) : C9A830C1
CRC32 hash : C9A830C1
CRC32 hash (skip zero) : 5F22330B
AccurateRip v1 signature : 78B4251C (C8F4E0A6 w/correction)
AccurateRip v2 signature : BBEE7E0E (71FC7939 w/correction)
->Accurately ripped with different offset (v1+v2, confidence 7+2/9, offset -564)
Statistics
Read error : 0
Jitter error (maybe fixed) : 0
Retry sector count : 0
Damaged sector count : 0
Track 02
Filename : /Users/dehors/Music/Les Plaisirs du Palais - Dominique Visse, Ensemble Clément Janequin (2007) [FLAC]/II - Les Plaisirs du Palais/02 - Decarella (fl. c.1550) - En Tour La Feste Saint Martin.flac
Pre-gap length : 00:04:35
Track gain : -2.68 dB
Peak : 0.823273
CRC32 hash (test run) : 1CCA4AC9
CRC32 hash : 1CCA4AC9
CRC32 hash (skip zero) : B6D423AE
AccurateRip v1 signature : 95A31C8A (7BB84CEE w/correction)
AccurateRip v2 signature : 70A49707 (100DE286 w/correction)
->Accurately ripped with different offset (v1+v2, confidence 7+2/9, offset -564)
Statistics
Read error : 0
Jitter error (maybe fixed) : 0
Retry sector count : 0
Damaged sector count : 0
Track 03
Filename : /Users/dehors/Music/Les Plaisirs du Palais - Dominique Visse, Ensemble Clément Janequin (2007) [FLAC]/II - Les Plaisirs du Palais/03 - Pierre Certon (1510-1572) - En Languissant Avoir Secours J'Attens.flac
Pre-gap length : 00:02:47
Track gain : -0.87 dB
Peak : 0.873352
CRC32 hash (test run) : CFBFD309
CRC32 hash : CFBFD309
CRC32 hash (skip zero) : F5F82CF3
AccurateRip v1 signature : F0B57F94 (B4D49475 w/correction)
AccurateRip v2 signature : A093185B (8983BA69 w/correction)
->Accurately ripped with different offset (v1+v2, confidence 7+2/9, offset -564)
Statistics
Read error : 0
Jitter error (maybe fixed) : 0
Retry sector count : 0
Damaged sector count : 0
Track 04
Filename : /Users/dehors/Music/Les Plaisirs du Palais - Dominique Visse, Ensemble Clément Janequin (2007) [FLAC]/II - Les Plaisirs du Palais/04 - Anonymous - C'Est Tout Abus.flac
Pre-gap length : 00:02:73
Track gain : -4.31 dB
Peak : 0.948975
CRC32 hash (test run) : A71A7E4B
CRC32 hash : A71A7E4B
CRC32 hash (skip zero) : 39BAEFEA
AccurateRip v1 signature : A47B05C4 (9707B196 w/correction)
AccurateRip v2 signature : 7C7F38DE (D5493697 w/correction)
->Accurately ripped with different offset (v1+v2, confidence 7+2/9, offset -564)
Statistics
Read error : 0
Jitter error (maybe fixed) : 0
Retry sector count : 0
Damaged sector count : 0
Track 05
Filename : /Users/dehors/Music/Les Plaisirs du Palais - Dominique Visse, Ensemble Clément Janequin (2007) [FLAC]/II - Les Plaisirs du Palais/05 - Anonymous - Triquedon Daine.flac
Pre-gap length : 00:03:30
Track gain : -5.32 dB
Peak : 0.950592
CRC32 hash (test run) : BD8EC176
CRC32 hash : BD8EC176
CRC32 hash (skip zero) : 2DB6E06B
AccurateRip v1 signature : FDD631B8 (720B63D4 w/correction)
AccurateRip v2 signature : 41F7B847 (E731CB94 w/correction)
->Accurately ripped with different offset (v1+v2, confidence 7+2/9, offset -564)
Statistics
Read error : 0
Jitter error (maybe fixed) : 0
Retry sector count : 0
Damaged sector count : 0
Track 06
Filename : /Users/dehors/Music/Les Plaisirs du Palais - Dominique Visse, Ensemble Clément Janequin (2007) [FLAC]/II - Les Plaisirs du Palais/06 - Claudin de Sermisy (c.1490-1562) - Hau, Hau Je Boys.flac
Pre-gap length : 00:01:53
Track gain : -4.30 dB
Peak : 0.885803
CRC32 hash (test run) : C1677DFB
CRC32 hash : C1677DFB
CRC32 hash (skip zero) : 852A80D3
AccurateRip v1 signature : 452F3BF1 (496665FE w/correction)
AccurateRip v2 signature : E815DE18 (F1396867 w/correction)
->Accurately ripped with different offset (v1+v2, confidence 7+2/9, offset -564)
Statistics
Read error : 0
Jitter error (maybe fixed) : 0
Retry sector count : 0
Damaged sector count : 0
Track 07
Filename : /Users/dehors/Music/Les Plaisirs du Palais - Dominique Visse, Ensemble Clément Janequin (2007) [FLAC]/II - Les Plaisirs du Palais/07 - Benoit Appenzeller (c.1480-1558) - Je Pers Espoir.flac
Pre-gap length : 00:03:03
Track gain : -3.29 dB
Peak : 0.950195
CRC32 hash (test run) : 60B1271F
CRC32 hash : 60B1271F
CRC32 hash (skip zero) : 963C34D2
AccurateRip v1 signature : BC31EE74 (87AF3A72 w/correction)
AccurateRip v2 signature : 4EF64981 (5D3DF64C w/correction)
->Accurately ripped with different offset (v1+v2, confidence 7+2/9, offset -564)
Statistics
Read error : 0
Jitter error (maybe fixed) : 0
Retry sector count : 0
Damaged sector count : 0
Track 08
Filename : /Users/dehors/Music/Les Plaisirs du Palais - Dominique Visse, Ensemble Clément Janequin (2007) [FLAC]/II - Les Plaisirs du Palais/08 - Claudin De Sermisy (c.1490-1562) - Auprès De Vous À 2 Voix.flac
Pre-gap length : 00:03:70
Track gain : -4.74 dB
Peak : 0.948822
CRC32 hash (test run) : 43304CC4
CRC32 hash : 43304CC4
CRC32 hash (skip zero) : 9198B12F
AccurateRip v1 signature : AB1F2D0F (5CBF6B6B w/correction)
AccurateRip v2 signature : 2097C9DB (E25440B4 w/correction)
->Accurately ripped with different offset (v1+v2, confidence 7+2/9, offset -564)
Statistics
Read error : 0
Jitter error (maybe fixed) : 0
Retry sector count : 0
Damaged sector count : 0
Track 09
Filename : /Users/dehors/Music/Les Plaisirs du Palais - Dominique Visse, Ensemble Clément Janequin (2007) [FLAC]/II - Les Plaisirs du Palais/09 - Dambert - Secouyez Moy.flac
Pre-gap length : 00:04:08
Track gain : -5.28 dB
Peak : 0.950348
CRC32 hash (test run) : C3159D5F
CRC32 hash : C3159D5F
CRC32 hash (skip zero) : 51287452
AccurateRip v1 signature : 902C8879 (742CDFFA w/correction)
AccurateRip v2 signature : C6288021
->Accurately ripped with different offset (v1, confidence 7/7, offset -564)
Statistics
Read error : 0
Jitter error (maybe fixed) : 0
Retry sector count : 0
Damaged sector count : 0
Track 10
Filename : /Users/dehors/Music/Les Plaisirs du Palais - Dominique Visse, Ensemble Clément Janequin (2007) [FLAC]/II - Les Plaisirs du Palais/10 - Anonymous - Si Vous N'Avez Madame.flac
Pre-gap length : 00:02:53
Track gain : -1.75 dB
Peak : 0.927673
CRC32 hash (test run) : D4C0D1B3
CRC32 hash : D4C0D1B3
CRC32 hash (skip zero) : 4BBCB8D2
AccurateRip v1 signature : DA55FF25 (4608403F w/correction)
AccurateRip v2 signature : 6C030082 (82531DBD w/correction)
->Accurately ripped with different offset (v1+v2, confidence 7+2/9, offset -564)
Statistics
Read error : 0
Jitter error (maybe fixed) : 0
Retry sector count : 0
Damaged sector count : 0
Track 11
Filename : /Users/dehors/Music/Les Plaisirs du Palais - Dominique Visse, Ensemble Clément Janequin (2007) [FLAC]/II - Les Plaisirs du Palais/11 - Nicolas Gombert (1490-1556) - La Chasse Au Lièvre.flac
Pre-gap length : 00:02:00
Track gain : -3.77 dB
Peak : 0.951385
CRC32 hash (test run) : 98DA9BB6
CRC32 hash : 98DA9BB6
CRC32 hash (skip zero) : 11F29C92
AccurateRip v1 signature : C24D93BA (72F2648D w/correction)
AccurateRip v2 signature : 7FB76F0C (E3609473 w/correction)
->Accurately ripped with different offset (v1+v2, confidence 7+2/9, offset -564)
Statistics
Read error : 0
Jitter error (maybe fixed) : 0
Retry sector count : 0
Damaged sector count : 0
Track 12
Filename : /Users/dehors/Music/Les Plaisirs du Palais - Dominique Visse, Ensemble Clément Janequin (2007) [FLAC]/II - Les Plaisirs du Palais/12 - Adrien Leroy (c.1520-1598) - Bransle De Champaigne/Allemande Du Pied De Cheval/Bransle De Poictou.flac
Pre-gap length : 00:01:50
Track gain : -2.65 dB
Peak : 0.949219
CRC32 hash (test run) : B2E5C88E
CRC32 hash : B2E5C88E
CRC32 hash (skip zero) : A9EA0ACF
AccurateRip v1 signature : E2662C03 (76981CB4 w/correction)
AccurateRip v2 signature : E07E7AEE (567FE8F8 w/correction)
->Accurately ripped with different offset (v1+v2, confidence 7+2/9, offset -564)
Statistics
Read error : 0
Jitter error (maybe fixed) : 0
Retry sector count : 0
Damaged sector count : 0
Track 13
Filename : /Users/dehors/Music/Les Plaisirs du Palais - Dominique Visse, Ensemble Clément Janequin (2007) [FLAC]/II - Les Plaisirs du Palais/13 - Pierre Certon (1510-1572) - Que N'Est Elle Aupres De Moy.flac
Pre-gap length : 00:03:30
Track gain : 0.56 dB
Peak : 0.676392
CRC32 hash (test run) : 331B8B5D
CRC32 hash : 331B8B5D
CRC32 hash (skip zero) : 2CFF0735
AccurateRip v1 signature : 2C53C005 (BC9FE75C w/correction)
AccurateRip v2 signature : 3937681B (EF4FBDD6 w/correction)
->Accurately ripped with different offset (v1+v2, confidence 7+2/9, offset -564)
Statistics
Read error : 0
Jitter error (maybe fixed) : 0
Retry sector count : 0
Damaged sector count : 0
Track 14
Filename : /Users/dehors/Music/Les Plaisirs du Palais - Dominique Visse, Ensemble Clément Janequin (2007) [FLAC]/II - Les Plaisirs du Palais/14 - Claudin De Sermisy (c.1490-1562) - Auprès De Vous À 4 Voix.flac
Pre-gap length : 00:04:05
Track gain : -5.35 dB
Peak : 0.948883
CRC32 hash (test run) : AAE22DC6
CRC32 hash : AAE22DC6
CRC32 hash (skip zero) : E7489138
AccurateRip v1 signature : 910B7275 (FF65E4F9 w/correction)
AccurateRip v2 signature : 876F0308 (8E16D50A w/correction)
->Accurately ripped with different offset (v1+v2, confidence 7+2/9, offset -564)
Statistics
Read error : 0
Jitter error (maybe fixed) : 0
Retry sector count : 0
Damaged sector count : 0
Track 15
Filename : /Users/dehors/Music/Les Plaisirs du Palais - Dominique Visse, Ensemble Clément Janequin (2007) [FLAC]/II - Les Plaisirs du Palais/15 - Josquin Baston (fl. 1542-1563) - Ung Souvenir Me Conforte.flac
Pre-gap length : 00:03:57
Track gain : -2.26 dB
Peak : 0.842010
CRC32 hash (test run) : BAAFE694
CRC32 hash : BAAFE694
CRC32 hash (skip zero) : 4015EDF1
AccurateRip v1 signature : F2C33B47 (AFDF61D9 w/correction)
AccurateRip v2 signature : E2F0C023 (6050DEF3 w/correction)
->Accurately ripped with different offset (v1+v2, confidence 7+2/9, offset -564)
Statistics
Read error : 0
Jitter error (maybe fixed) : 0
Retry sector count : 0
Damaged sector count : 0
Track 16
Filename : /Users/dehors/Music/Les Plaisirs du Palais - Dominique Visse, Ensemble Clément Janequin (2007) [FLAC]/II - Les Plaisirs du Palais/16 - Mittantier (fl. 1536-1547) - Laissons Amour.flac
Pre-gap length : 00:02:65
Track gain : -2.78 dB
Peak : 0.950653
CRC32 hash (test run) : D740F6C1
CRC32 hash : D740F6C1
CRC32 hash (skip zero) : 9CE3B9CF
AccurateRip v1 signature : 0A53B037 (55789683 w/correction)
AccurateRip v2 signature : F355E7C5 (CE355C03 w/correction)
->Accurately ripped with different offset (v1+v2, confidence 7+2/9, offset -564)
Statistics
Read error : 0
Jitter error (maybe fixed) : 0
Retry sector count : 0
Damaged sector count : 0
Track 17
Filename : /Users/dehors/Music/Les Plaisirs du Palais - Dominique Visse, Ensemble Clément Janequin (2007) [FLAC]/II - Les Plaisirs du Palais/17 - Guillaume Le Heurteur (fl. 1530-1545) - Mirelaridon.flac
Pre-gap length : 00:02:55
Track gain : -2.51 dB
Peak : 0.949524
CRC32 hash (test run) : 87C3EC53
CRC32 hash : 87C3EC53
CRC32 hash (skip zero) : 0D2EF061
AccurateRip v1 signature : 415831CA (CE5A91AE w/correction)
AccurateRip v2 signature : 50E552AB (E6490605 w/correction)
->Accurately ripped with different offset (v1+v2, confidence 7+2/9, offset -564)
Statistics
Read error : 0
Jitter error (maybe fixed) : 0
Retry sector count : 0
Damaged sector count : 0
Track 18
Filename : /Users/dehors/Music/Les Plaisirs du Palais - Dominique Visse, Ensemble Clément Janequin (2007) [FLAC]/II - Les Plaisirs du Palais/18 - Benoit Appenzeller (c.1480-1558) - Musae Jovis.flac
Pre-gap length : 00:02:15
Track gain : -3.43 dB
Peak : 0.949188
CRC32 hash (test run) : B328E6E2
CRC32 hash : B328E6E2
CRC32 hash (skip zero) : B64B657B
AccurateRip v1 signature : D15B5FB3 (37E13BAC w/correction)
AccurateRip v2 signature : EB28F762 (CB28D7C6 w/correction)
->Accurately ripped with different offset (v1+v2, confidence 7+2/9, offset -564)
Statistics
Read error : 0
Jitter error (maybe fixed) : 0
Retry sector count : 0
Damaged sector count : 0
Track 19
Filename : /Users/dehors/Music/Les Plaisirs du Palais - Dominique Visse, Ensemble Clément Janequin (2007) [FLAC]/II - Les Plaisirs du Palais/19 - Eustache Barbion - Pour Quelque Paine Que J'Endure.flac
Pre-gap length : 00:02:03
Track gain : -3.43 dB
Peak : 0.948669
CRC32 hash (test run) : 421A9814
CRC32 hash : 421A9814
CRC32 hash (skip zero) : EFABB0EE
AccurateRip v1 signature : 4699F5CD (628C58DA w/correction)
AccurateRip v2 signature : 25FC5818 (D53626D9 w/correction)
->Accurately ripped with different offset (v1+v2, confidence 7+2/9, offset -564)
Statistics
Read error : 0
Jitter error (maybe fixed) : 0
Retry sector count : 0
Damaged sector count : 0
Track 20
Filename : /Users/dehors/Music/Les Plaisirs du Palais - Dominique Visse, Ensemble Clément Janequin (2007) [FLAC]/II - Les Plaisirs du Palais/20 - Nicolle Des Cellers d'Hesdin (????-1538) - Ung Vray Musicien.flac
Pre-gap length : 00:03:37
Track gain : -4.22 dB
Peak : 0.926208
CRC32 hash (test run) : 48EA40DA
CRC32 hash : 48EA40DA
CRC32 hash (skip zero) : B15D851C
AccurateRip v1 signature : CEC8BFAB (FC7EA062 w/correction)
AccurateRip v2 signature : 496952C8 (B8FF47D8 w/correction)
->Accurately ripped with different offset (v1+v2, confidence 7+2/9, offset -564)
Statistics
Read error : 0
Jitter error (maybe fixed) : 0
Retry sector count : 0
Damaged sector count : 0
Track 21
Filename : /Users/dehors/Music/Les Plaisirs du Palais - Dominique Visse, Ensemble Clément Janequin (2007) [FLAC]/II - Les Plaisirs du Palais/21 - Tylman Susato (c.1500-1561) - Prière Apres Le Repas, Pere esternel.flac
Pre-gap length : 00:02:00
Track gain : -4.54 dB
Peak : 0.949463
CRC32 hash (test run) : B9AFA88C
CRC32 hash : B9AFA88C
CRC32 hash (skip zero) : F2FA1371
AccurateRip v1 signature : A6091E72 (E5E118CD w/correction)
AccurateRip v2 signature : 93DF3A52 (785152D3 w/correction)
->Accurately ripped with different offset (v1+v2, confidence 7+2/9, offset -564)
Statistics
Read error : 0
Jitter error (maybe fixed) : 0
Retry sector count : 0
Damaged sector count : 0
No errors occurred
End of status report

Содержание индексной карты (.CUE)

TITLE "Les plaisirs du palais"
PERFORMER "Ensemble Clément Janequin · Dominique Visse"
REM DATE "2007"
REM DISCNUMBER 2
REM DISCID 080E5B15
REM REPLAYGAIN_ALBUM_GAIN -3.60 dB
REM REPLAYGAIN_ALBUM_PEAK 0.951385
FILE "01. Prière devant le repas....flac" WAVE
TRACK 01 AUDIO
TITLE "Prière devant le repas : O souverain Pasteur"
ISRC FRZ140019010
REM REPLAYGAIN_TRACK_GAIN -3.43 dB
REM REPLAYGAIN_TRACK_PEAK 0.921753
INDEX 01 00:00:00
TRACK 02 AUDIO
TITLE "En Tour la feste Saint Martin"
ISRC FRZ140019020
REM REPLAYGAIN_TRACK_GAIN -2.68 dB
REM REPLAYGAIN_TRACK_PEAK 0.823273
INDEX 00 02:13:20
FILE "02. En Tour la feste Saint Martin.flac" WAVE
INDEX 01 00:00:00
TRACK 03 AUDIO
TITLE "En languissant avoir secours j’attens"
ISRC FRZ140019030
REM REPLAYGAIN_TRACK_GAIN -0.87 dB
REM REPLAYGAIN_TRACK_PEAK 0.873352
INDEX 00 01:33:30
FILE "03. En languissant avoir secours j’attens.flac" WAVE
INDEX 01 00:00:00
TRACK 04 AUDIO
TITLE "C’est tout abus"
SONGWRITER "Anonymous"
ISRC FRZ140019040
REM REPLAYGAIN_TRACK_GAIN -4.31 dB
REM REPLAYGAIN_TRACK_PEAK 0.948975
INDEX 00 01:59:30
FILE "04. C’est tout abus.flac" WAVE
INDEX 01 00:00:00
TRACK 05 AUDIO
TITLE "Triquedon daine"
SONGWRITER "Anonymous"
ISRC FRZ140019050
REM REPLAYGAIN_TRACK_GAIN -5.32 dB
REM REPLAYGAIN_TRACK_PEAK 0.950592
INDEX 00 03:27:20
FILE "05. Triquedon daine.flac" WAVE
INDEX 01 00:00:00
TRACK 06 AUDIO
TITLE "Hau, hau je boys"
ISRC FRZ140019060
REM REPLAYGAIN_TRACK_GAIN -4.30 dB
REM REPLAYGAIN_TRACK_PEAK 0.885803
INDEX 00 01:04:22
FILE "06. Hau, hau je boys.flac" WAVE
INDEX 01 00:00:00
TRACK 07 AUDIO
TITLE "Je pers espoir"
ISRC FRZ140019070
REM REPLAYGAIN_TRACK_GAIN -3.29 dB
REM REPLAYGAIN_TRACK_PEAK 0.950195
INDEX 00 01:26:72
FILE "07. Je pers espoir.flac" WAVE
INDEX 01 00:00:00
TRACK 08 AUDIO
TITLE "Auprès de vous à 2 voix"
ISRC FRZ140019080
REM REPLAYGAIN_TRACK_GAIN -4.74 dB
REM REPLAYGAIN_TRACK_PEAK 0.948822
INDEX 00 02:49:20
FILE "08. Auprès de vous à 2 voix.flac" WAVE
INDEX 01 00:00:00
TRACK 09 AUDIO
TITLE "Secouez moy"
ISRC FRZ140019090
REM REPLAYGAIN_TRACK_GAIN -5.28 dB
REM REPLAYGAIN_TRACK_PEAK 0.950348
INDEX 00 01:54:72
FILE "09. Secouez moy.flac" WAVE
INDEX 01 00:00:00
TRACK 10 AUDIO
TITLE "Si vous n’avez madame"
SONGWRITER "Anonymous"
ISRC FRZ140019100
REM REPLAYGAIN_TRACK_GAIN -1.75 dB
REM REPLAYGAIN_TRACK_PEAK 0.927673
INDEX 00 01:30:02
FILE "10. Si vous n’avez madame.flac" WAVE
INDEX 01 00:00:00
TRACK 11 AUDIO
TITLE "La chasse au lièvre"
ISRC FRZ140019110
REM REPLAYGAIN_TRACK_GAIN -3.77 dB
REM REPLAYGAIN_TRACK_PEAK 0.951385
INDEX 00 02:28:25
FILE "11. La chasse au lièvre.flac" WAVE
INDEX 01 00:00:00
TRACK 12 AUDIO
TITLE "Bransle de Champaigne / Allemande du pied de cheval / Bransle de Poictou"
ISRC FRZ140019120
REM REPLAYGAIN_TRACK_GAIN -2.65 dB
REM REPLAYGAIN_TRACK_PEAK 0.949219
INDEX 00 07:37:05
FILE "12. Bransle de Champaigne....flac" WAVE
INDEX 01 00:00:00
TRACK 13 AUDIO
TITLE "Que n’est elle aupres de moy"
ISRC FRZ140019130
REM REPLAYGAIN_TRACK_GAIN 0.56 dB
REM REPLAYGAIN_TRACK_PEAK 0.676392
INDEX 00 06:18:52
FILE "13. Que n’est elle aupres de moy.flac" WAVE
INDEX 01 00:00:00
TRACK 14 AUDIO
TITLE "Auprès de vous à 4 voix"
ISRC FRZ140019140
REM REPLAYGAIN_TRACK_GAIN -5.35 dB
REM REPLAYGAIN_TRACK_PEAK 0.948883
INDEX 00 02:15:73
FILE "14. Auprès de vous à 4 voix.flac" WAVE
INDEX 01 00:00:00
TRACK 15 AUDIO
TITLE "Ung souvenir me conforte"
ISRC FRZ140019150
REM REPLAYGAIN_TRACK_GAIN -2.26 dB
REM REPLAYGAIN_TRACK_PEAK 0.842010
INDEX 00 02:15:60
FILE "15. Ung souvenir me conforte.flac" WAVE
INDEX 01 00:00:00
TRACK 16 AUDIO
TITLE "Laissons amour"
ISRC FRZ140019160
REM REPLAYGAIN_TRACK_GAIN -2.78 dB
REM REPLAYGAIN_TRACK_PEAK 0.950653
INDEX 00 03:09:55
FILE "16. Laissons amour.flac" WAVE
INDEX 01 00:00:00
TRACK 17 AUDIO
TITLE "Mirelaridon"
ISRC FRZ140019170
REM REPLAYGAIN_TRACK_GAIN -2.51 dB
REM REPLAYGAIN_TRACK_PEAK 0.949524
INDEX 00 02:28:70
FILE "17. Mirelaridon.flac" WAVE
INDEX 01 00:00:00
TRACK 18 AUDIO
TITLE "Musae Jovis"
ISRC FRZ140019180
REM REPLAYGAIN_TRACK_GAIN -3.43 dB
REM REPLAYGAIN_TRACK_PEAK 0.949188
INDEX 00 01:23:53
FILE "18. Musae Jovis.flac" WAVE
INDEX 01 00:00:00
TRACK 19 AUDIO
TITLE "Pour quelque paine que j’endure"
ISRC FRZ140019190
REM REPLAYGAIN_TRACK_GAIN -3.43 dB
REM REPLAYGAIN_TRACK_PEAK 0.948669
INDEX 00 06:40:72
FILE "19. Pour quelque paine que j’endure.flac" WAVE
INDEX 01 00:00:00
TRACK 20 AUDIO
TITLE "Ung vray musicien"
ISRC FRZ140019200
REM REPLAYGAIN_TRACK_GAIN -4.22 dB
REM REPLAYGAIN_TRACK_PEAK 0.926208
INDEX 00 02:23:15
FILE "20. Ung vray musicien.flac" WAVE
INDEX 01 00:00:00
TRACK 21 AUDIO
TITLE "Prière apres le repas : Pere esternel"
ISRC FRZ140019210
REM REPLAYGAIN_TRACK_GAIN -4.54 dB
REM REPLAYGAIN_TRACK_PEAK 0.949463
INDEX 00 01:32:45
FILE "21. Prière apres le repas....flac" WAVE
INDEX 01 00:00:00
[teatrix.ru].t19605.torrent 
Торрент: Зарегистрирован [ 2016-03-18 12:28 ] · 7B3CA6E6B87A50FCE467823196A9E1E32CF82A28

Скачать .torrent

Скачать

22 KB

Статус: проверено
Скачан: 0 раз
Размер: 639 MB
terms.php



Быстрый ответ

Имя:

      
Для отправки сообщений необходимо включить JavaScript
Показать сообщения:    

Текущее время: 11-Дек 09:06

Часовой пояс: UTC + 3


Вы можете начинать темы
Вы можете отвечать на сообщения
Вы не можете редактировать свои сообщения
Вы не можете удалять свои сообщения
Вы не можете голосовать в опросах
Вы не можете прикреплять файлы к сообщениям
Вы можете скачивать файлы