(Classical) [LP] [24/48] R.Wagner - Lohengrin \ Р.Вагнер - Лоэнгрин (Дирижер Рафаэль Кубелик) [5LP box] - 1974, FLAC (tracks+.cue)


Статистика раздачи [Обновить пиров]
Размер:  2.17 GB   |    Зарегистрирован:  8 месяцев 15 дней   |    Скачан:  0 раз

Полного источника не было: Никогда

 
   
 
 
 

[Цитировать]

R.Wagner - Lohengrin \ Р.Вагнер - Лоэнгрин (Дирижер Рафаэль Кубелик) [5LP box]
Жанр: Classical
Носитель: LP
Год выпуска: 1974
Лейбл: Melodya
Страна-производитель: USSR
Аудио кодек: FLAC
Тип рипа: tracks+.cue
Формат записи: 24/192
Формат раздачи: 24/48
Продолжительность: 3.41.04 min
Треклист:
Р.Вагнер "Лоэнгрин".
Романтическая опера в трех действиях.
Либретто Р.Вагнера.
на немецком языке.
01. Действие I.Вступление.Сцена 1
02. Сцена 2,3
03. Сцена 3 (окончание)
04. Действие II. Сцена 1
05. Сцена 2
06. Сцена 3 - 5
07. Сцена 5 (окончание)
08. Действие III. Сцена 1,2
09. Сцена 2 (окончание), Сцена 3
10. Сцена 3 (окончание)
Действующие лица и исполнители:
Генрих Птицелов,германский король - Карл Риддербуш, Бас.
Лоенгрин - Джеимс Кинг, тенор.
Эльза, принцесса брабантская - Гундула Яновиц, сопрано.
Фридрих фон Тельрамунд, брабантский граф - Томас Стюарт, баритон.
Ортруда, его жена - Гвинет Джонс, сопрано.
Герольд - Герд Нинштедт, бас.
Четыре брабантских дворянина - Фридрих Ленц, Вилли Брокмайер, теноры;
Раймунд Грумбах, Рихард Когель, басы.
Четыре пажа - солисты хора.
ХОР БАВАРСКОГО РАДИО. Хормейстер Хайнц Менге.
СИМФОНИЧЕСКИЙ ОРКЕСТР БАВАРСКОГО РАДИО.
Дирижер Рафаэль Кубелик.
Источник оцифровки: автором раздачи
Код класса состояния винила: NM
Устройство воспроизведения: Электроника ЭП 017С
Головка звукоснимателя: Audio-Technica AT95
Предварительный усилитель: Бриг-001
АЦП: VIA HD audio device
Программа-оцифровщик: Izotope RX III Advanced
Обработка: Manual

Спектр+АЧХ+Уровень записи




DR=15

foobar2000 1.1.10 / Dynamic Range Meter 1.1.1
log date: 2014-12-05 14:26:15
--------------------------------------------------------------------------------
Analyzed: R.Wagner / Lohengrin
--------------------------------------------------------------------------------
DR Peak RMS Duration Track
--------------------------------------------------------------------------------
DR16 -2.09 dB -25.43 dB 20:07 ?-Action I.Entry. Scene 1
DR18 -0.01 dB -26.04 dB 19:34 ?-Scene 2,3
DR14 -2.33 dB -22.35 dB 24:49 ?-Scene 3 (ending)
DR15 -3.96 dB -26.11 dB 20:38 ?-Action II. Scene 1
DR15 -4.50 dB -26.31 dB 21:10 ?-Scene 2
DR15 -2.35 dB -22.81 dB 25:39 ?-Scene 3 - 5
DR15 -1.26 dB -23.54 dB 20:14 ?-Scene 5 (ending)
DR15 -4.18 dB -25.32 dB 29:04 ?-Action III. Scene 1,2
DR15 -3.08 dB -24.87 dB 18:53 ?-Scene 2 (ending), Scene 3
DR15 -2.99 dB -23.43 dB 20:54 ?-Scene 3 (ending)
--------------------------------------------------------------------------------
Number of tracks: 10
Official DR value: DR15
Samplerate: 48000 Hz
Channels: 2
Bits per sample: 24
Bitrate: 1395 kbps
Codec: FLAC
================================================================================

OTK

[teatrix.ru].t19609.torrent 
Торрент: Зарегистрирован [ 2016-03-18 12:41 ] · 34B1F133B35C93CB9B5685D5FEE4883C8796A631

Скачать .torrent

Скачать

13 KB

Статус: проверено
Скачан: 0 раз
Размер: 2.17 GB
terms.php



Быстрый ответ

Имя:

      
Для отправки сообщений необходимо включить JavaScript
Показать сообщения:    

Текущее время: 02-Дек 23:12

Часовой пояс: UTC + 3


Вы можете начинать темы
Вы можете отвечать на сообщения
Вы не можете редактировать свои сообщения
Вы не можете удалять свои сообщения
Вы не можете голосовать в опросах
Вы не можете прикреплять файлы к сообщениям
Вы можете скачивать файлы