Мартин Лютер Кинг. Смерть в Мемфисе / Martin Luther King. Death in Memphis (Томас Гифер / Thomas Giefer) [2008, Документальный, драма, криминал, биография, IPTVRip]


Статистика раздачи [Обновить пиров]
Размер:  701 MB   |    Зарегистрирован:  8 месяцев 23 дня   |    Скачан:  0 раз

Полного источника не было: Никогда

 
   
 
 
 

[Цитировать]

Мартин Лютер Кинг. Смерть в Мемфисе / Martin Luther King. Death in Memphis
Дата/Год выпуска: 2008
Страна: США
Жанр: Документальный, драма, криминал, биография
Продолжительность: 00:42:40
Перевод: Одноголосый закадровый
Русские субтитры: нет
Оригинальная аудиодорожка: нет
Режиссер: Томас Гифер / Thomas Giefer
Телеканал: ТК "Viasat History"
Описание: В апреле 1968 года Мартин Лютер Кинг был на пике популярности. Он мобилизовал «черное движение» на борьбу за равенство прав и свобод. Однако после убийства президента Кеннеди и критики войны во Вьетнаме Кинг стал терять поддержку в Белом доме – преемник Кеннеди Линдон Джонсон фактически стал его врагом. В итоге Мартин Лютер Кинг был убит. Полиция обвинила беглого преступника Д.Э. Рея. Его личные вещи и винтовка были найдены в непосредственной близости от отеля, где был застрелен Кинг. Однако многие эксперты считают, что дело против Рея было сфабриковано. Тем не менее, дело об убийстве Кинга так и не было пересмотрено.
Сэмпл: http://multi-up.com/1017725
качество: IPTVRip
формат: AVI
Видео: 720x416 (1.73:1), 25 fps, XviD build 66 ~2094 kbps avg, 0.28 bit/pixel
Аудио: 48 kHz, AC3 Dolby Digital, 2/0 (L,R) ch, ~192 kbps

MediaInfo

General
Complete name : E:\Pshichko66\Na zapis'\Документальные фильмы\Martin Ljuter King. Smert' v Memfise.avi
Format : AVI
Format/Info : Audio Video Interleave
File size : 701 MiB
Duration : 42mn 40s
Overall bit rate : 2 297 Kbps
Movie name : M
Director : P
Genre : A
Writing application : V
Original source form/Name : D
Copyright : 0
Video
ID : 0
Format : MPEG-4 Visual
Format profile : Advanced Simple@L5
Format settings, BVOP : 2
Format settings, QPel : No
Format settings, GMC : No warppoints
Format settings, Matrix : Custom
Codec ID : XVID
Codec ID/Hint : XviD
Duration : 42mn 40s
Bit rate : 2 095 Kbps
Width : 720 pixels
Height : 416 pixels
Display aspect ratio : 1.731
Frame rate : 25.000 fps
Color space : YUV
Chroma subsampling : 4:2:0
Bit depth : 8 bits
Scan type : Progressive
Compression mode : Lossy
Bits/(Pixel*Frame) : 0.280
Stream size : 639 MiB (91%)
Writing library : XviD 66
Audio
ID : 1
Format : AC-3
Format/Info : Audio Coding 3
Mode extension : CM (complete main)
Format settings, Endianness : Big
Codec ID : 2000
Duration : 42mn 40s
Bit rate mode : Constant
Bit rate : 192 Kbps
Channel count : 2 channels
Channel positions : Front: L R
Sampling rate : 48.0 KHz
Bit depth : 16 bits
Compression mode : Lossy
Stream size : 58.6 MiB (8%)
Alignment : Split accross interleaves
Interleave, duration : 40 ms (1.00 video frame)
Interleave, preload duration : 500 ms

Скриншоты

[teatrix.ru].t19613.torrent 
Торрент: Зарегистрирован [ 2016-03-18 12:41 ] · A01E1079C212CF2D3CFE812698ECE1D9AFA3AE9E

Скачать .torrent

Скачать

14 KB

Статус: проверено
Скачан: 0 раз
Размер: 701 MB
terms.php



Быстрый ответ

Имя:

      
Для отправки сообщений необходимо включить JavaScript
Показать сообщения:    

Текущее время: 11-Дек 11:01

Часовой пояс: UTC + 3


Вы можете начинать темы
Вы можете отвечать на сообщения
Вы не можете редактировать свои сообщения
Вы не можете удалять свои сообщения
Вы не можете голосовать в опросах
Вы не можете прикреплять файлы к сообщениям
Вы можете скачивать файлы