(Classical) C.P.E. Bach - Litaneien; Motetten; Psalmen - Gesualdo Consort Amsterdam, Harry van der Kamp - 2005, FLAC (image+.cue) lossless


Статистика раздачи [Обновить пиров]
Размер:  350 MB   |    Зарегистрирован:  8 месяцев 17 дней   |    Скачан:  0 раз

Полного источника не было: Никогда

 
   
 
 
 

[Цитировать]

C.P.E. Bach - Litaneien; Motetten; Psalmen - Gesualdo Consort Amsterdam, Harry van der Kamp
Жанр: Classical
Год издания диска: 2005
Издатель (лейбл): Sony Classical
Дата записи: 2003
Аудиокодек: FLAC
Тип рипа: image+.cue
Битрейт аудио: lossless
Продолжительность: 82:44
Источник: собственный рип
Наличие сканов в содержимом раздачи: да
Треклист:
CD1
Carl Philipp Emanuel Bach (1714-1788)
[1] Der Kampf der Tugend, Wq 208, No.2
[2] Bitten, Wq 208, No.3
[3] Die neue Litanei, Wq 204, No.2
[4] Trost der Erlösung, Wq 208, No.1
[5] Die Menschenliebe Jesu, Wq 208, No.4
CD2
Carl Philipp Emanuel Bach
[1] Wenn ich zu dir in meinen Angsten flehe, Wq 206
Johann Sebastian Bach (1685-1750)
[2] Ein selig Ende mir bescher, Contrapunctus XIX from 'Art of Fugue', BWV 1080
Arrangement by Harry van der Kamp for 8 voices and basso seguente
Carl Philipp Emanuel Bach
[3] Die alte Litanei, Wq 204, No.1
[4] Warum versammlen sich und dräuen die Heiden, Wq 205
Исполнители:
Gesualdo Consort Amsterdam
Harry van der Kamp

Лог создания рипа: CD1

Exact Audio Copy V1.0 beta 3 from 29. August 2011
EAC extraction logfile from 16. May 2014, 17:32
Gesualdo Consort Amsterdam, Harry van der Kamp / C.P.E.Bach - Litanies, Motets, Psalms - CD1
Used drive : HL-DT-STDVDRRW GWA-4164B Adapter: 5 ID: 0
Read mode : Secure
Utilize accurate stream : Yes
Defeat audio cache : Yes
Make use of C2 pointers : No
Read offset correction : 102
Overread into Lead-In and Lead-Out : No
Fill up missing offset samples with silence : Yes
Delete leading and trailing silent blocks : No
Null samples used in CRC calculations : Yes
Used interface : Native Win32 interface for Win NT & 2000
Used output format : User Defined Encoder
Selected bitrate : 896 kBit/s
Quality : High
Add ID3 tag : No
Command line compressor : C:\Program Files\Exact Audio Copy\FLAC\FLAC.EXE
Additional command line options : -V -8 %source%
TOC of the extracted CD
Track | Start | Length | Start sector | End sector
---------------------------------------------------------
1 | 0:00.00 | 4:48.70 | 0 | 21669
2 | 4:48.70 | 4:56.52 | 21670 | 43921
3 | 9:45.47 | 24:44.01 | 43922 | 155222
4 | 34:29.48 | 1:57.34 | 155223 | 164031
5 | 36:27.07 | 4:30.30 | 164032 | 184311
Range status and errors
Selected range
Filename D:\temp\Music\C.P.E.Bach - Litanies, Motets, Psalms\C.P.E.Bach - Litanies, Motets, Psalms - CD1.wav
Peak level 99.9 %
Extraction speed 1.2 X
Range quality 100.0 %
Test CRC C74A5CE8
Copy CRC C74A5CE8
Copy OK
No errors occurred
AccurateRip summary
Track 1 cannot be verified as accurate (confidence 4) [5B512119], AccurateRip returned [88C3FEFB] (AR v2)
Track 2 cannot be verified as accurate (confidence 4) [1FB3DDAF], AccurateRip returned [00CC8587] (AR v2)
Track 3 cannot be verified as accurate (confidence 4) [1DEB1958], AccurateRip returned [A046A45A] (AR v2)
Track 4 cannot be verified as accurate (confidence 4) [DD378617], AccurateRip returned [8D6A2E71] (AR v2)
Track 5 cannot be verified as accurate (confidence 4) [205054F3], AccurateRip returned [E73F1CE9] (AR v2)
No tracks could be verified as accurate
You may have a different pressing from the one(s) in the database
End of status report
==== Log checksum E85E24F8C85D58DFA6631E61DE1C52BBB5AEADF9351C8667C9F155F726F46E5A ====

Лог создания рипа: CD2

Exact Audio Copy V1.0 beta 3 from 29. August 2011
EAC extraction logfile from 16. May 2014, 18:13
Gesualdo Consort Amsterdam, Harry van der Kamp / C.P.E.Bach - Litanies, Motets, Psalms - CD2
Used drive : HL-DT-STDVDRRW GWA-4164B Adapter: 5 ID: 0
Read mode : Secure
Utilize accurate stream : Yes
Defeat audio cache : Yes
Make use of C2 pointers : No
Read offset correction : 102
Overread into Lead-In and Lead-Out : No
Fill up missing offset samples with silence : Yes
Delete leading and trailing silent blocks : No
Null samples used in CRC calculations : Yes
Used interface : Native Win32 interface for Win NT & 2000
Used output format : User Defined Encoder
Selected bitrate : 896 kBit/s
Quality : High
Add ID3 tag : No
Command line compressor : C:\Program Files\Exact Audio Copy\FLAC\FLAC.EXE
Additional command line options : -V -8 %source%
TOC of the extracted CD
Track | Start | Length | Start sector | End sector
---------------------------------------------------------
1 | 0:00.00 | 2:59.68 | 0 | 13492
2 | 2:59.68 | 11:08.69 | 13493 | 63661
3 | 14:08.62 | 23:56.27 | 63662 | 171388
4 | 38:05.14 | 3:37.51 | 171389 | 187714
Range status and errors
Selected range
Filename D:\temp\Music\C.P.E.Bach - Litanies, Motets, Psalms\C.P.E.Bach - Litanies, Motets, Psalms - CD2.wav
Peak level 91.8 %
Extraction speed 2.4 X
Range quality 100.0 %
Test CRC B63C7D1B
Copy CRC B63C7D1B
Copy OK
No errors occurred
AccurateRip summary
Track 1 cannot be verified as accurate (confidence 4) [FB316140], AccurateRip returned [BF693FBC] (AR v2)
Track 2 cannot be verified as accurate (confidence 4) [8AC4094B], AccurateRip returned [CFAF28EE] (AR v2)
Track 3 cannot be verified as accurate (confidence 4) [A52C447E], AccurateRip returned [8994A83D] (AR v2)
Track 4 cannot be verified as accurate (confidence 4) [5A4426EA], AccurateRip returned [83DC3CC5] (AR v2)
No tracks could be verified as accurate
You may have a different pressing from the one(s) in the database
End of status report
==== Log checksum 4B88318231D02548DAE34409B7CA4970A79FB25D5EE0FA521A81665D6ACFE657 ====
[teatrix.ru].t19614.torrent 
Торрент: Зарегистрирован [ 2016-03-18 12:22 ] · DB16BCA122F7142B7CDD855BDD701D8560A78284

Скачать .torrent

Скачать

30 KB

Статус: проверено
Скачан: 0 раз
Размер: 350 MB
terms.php



Быстрый ответ

Имя:

      
Для отправки сообщений необходимо включить JavaScript
Показать сообщения:    

Текущее время: 05-Дек 11:32

Часовой пояс: UTC + 3


Вы можете начинать темы
Вы можете отвечать на сообщения
Вы не можете редактировать свои сообщения
Вы не можете удалять свои сообщения
Вы не можете голосовать в опросах
Вы не можете прикреплять файлы к сообщениям
Вы можете скачивать файлы