Дон Жуан (Сергей Образцов, Владимир Кусов) [1988 г., шоу-мюзикл, кукольный, DVDRip] Государственный академический Центральный театр кукол


 

[Цитировать]

Дон Жуан Название театра: Государственный академический Центральный театр кукол.
Год выпуска: 1988.
Жанр: Настоящий шоу-мюзикл на зарубежном языке, кукольный.
Продолжительность: 01:26:17.
Режиссеры: народный артист СССР Сергей Образцов, народный артист РСФСР Владимир Кусов, Татьяна Маслова.
Действующие лица и исполнители:
Дон Жуан - Виктор Рябов,
Донна Анна - В. Рубановская,
Командор - Николай Алексахин,
Чёрт-преследователь - Леонид Бунин,
Американка - Наталия Державина,
Американец - Владимир Михитаров,
Доярки с частушками - Екатерина Бабаева, Вера Жукова,
Итальянка - Наталья Образцова,
Её братья - И. Кудрявцев, Сергей Мухин,
Мама - Людмила Угнивенко,
Папа - Евгений Началов,
Султан - Федор Виолин,
Танцовщица - Ольга Тарасова,
Островитянка - Екатерина Бабаева,
Мексиканцы-всадники - Евгений Большаков, Федор Виолин, Владимир Михитаров, Сергей Мухин,
Японка - Алла Костюкова,
Японец - Федор Виолин,
Экскурсовод - Владимир Михитаров,
Переводчица - Светлана Шеповалова, и др.
Вокальные партии исполняют: Николай Алексахин, Екатерина Бабаева, Михаил Боярский, Татьяна Дашковская, Татьяна Конькова, Ирина Мазинг, Любовь Матюшина.
Вступительное слово: народный артист СССР Сергей Образцов.
Описание:
Кукольный театр - мир особенно ясный и счастливый - отбрасывает всевозможные ограничения и предубеждения. Сам спектакль "Дон Жуан" ироничен. Он - пародия на мюзикл. А "зарубежный язык", придуманный Зиновием Гердтом, не нуждается в переводе. Каждая картина - самостоятельный вид штампованного мюзикла: исторический мюзикл, мюзикл кошмаров, даже есть детективно-мордобойный мюзикл. И, конечно, вступительное слово читает сам автор - Сергей Владимирович Образцов.
Дополнительная информация:
Страна: СССР .
Выпущено: © Главная редакция литературно-драматических программ ЦТ Гостелерадио СССР.
Режиссеры спектакля: народный артист СССР Сергей Образцов, народный артист РСФСР Владимир Кусов.
Авторы пьесы: Гарри Бардин, народный артист РСФСР Василий Ливанов.
Автор зарубежного языка, текста и песенки: Зиновий Гердт.
Художники: Алина Спешнева, Владимир Гарбузов.
Композитор: Геннадий Гладков.
Балетмейстер: Владимир Грамматиков.
Режиссеры фильма-спектакля: народный артист РСФСР Владимир Кусов, Татьяна Маслова.
Оператор-постановщик: Лев Стрельцин.

Еще постеры

Релиз
Огромное спасибо sharafilm за DVD!!!

Качество: DVDRip
Формат: AVI
Видео: 688x528 (1.30:1), 25 fps, XviD build 65 ~2238 kbps avg, 0.25 bit/pixel
Аудио: 48 kHz, AC3 Dolby Digital, 2/0 (L,R) ch, ~192 kbps

Отчет MI

Общее
Полное имя : Don.Juan_Central'nyj.Teatr.Kukol.1988.XviD.DVDRip_1.48.avi
Format : AVI
Format/Info : Audio Video Interleave
File size : 1.47 GiB
Duration : 1h 26mn
Overall bit rate : 2 441 Kbps
Writing application : VirtualDubMod 1.5.10.3 | www.virtualdub-fr.org || (build 2550/release)
Writing library : VirtualDubMod build 2550/release
Video
ID : 0
Format : MPEG-4 Visual
Format profile : Advanced Simple@L5
Format settings, BVOP : 1
Format settings, QPel : No
Format settings, GMC : No warppoints
Format settings, Matrix : Custom
Codec ID : XVID
Codec ID/Hint : XviD
Duration : 1h 26mn
Bit rate : 2 239 Kbps
Width : 688 pixels
Height : 528 pixels
Display aspect ratio : 4:3
Frame rate : 25.000 fps
Color space : YUV
Chroma subsampling : 4:2:0
Bit depth : 8 bits
Scan type : Progressive
Compression mode : Lossy
Bits/(Pixel*Frame) : 0.247
Stream size : 1.35 GiB (92%)
Writing library : XviD 65
Audio
ID : 1
Format : AC-3
Format/Info : Audio Coding 3
Mode extension : CM (complete main)
Format settings, Endianness : Big
Codec ID : 2000
Duration : 1h 26mn
Bit rate mode : Constant
Bit rate : 192 Kbps
Channel(s) : 2 channels
Channel positions : Front: L R
Sampling rate : 48.0 KHz
Bit depth : 16 bits
Compression mode : Lossy
Stream size : 118 MiB (8%)
Alignment : Split accross interleaves
Interleave, duration : 40 ms (1.00 video frame)
Interleave, preload duration : 500 ms.

Скриншоты

Альтернативный хост




Показать сообщения:    

Текущее время: 11-Дек 16:49

Часовой пояс: UTC + 3


Вы не можете начинать темы
Вы не можете отвечать на сообщения
Вы не можете редактировать свои сообщения
Вы не можете удалять свои сообщения
Вы не можете голосовать в опросах
Вы не можете прикреплять файлы к сообщениям
Вы не можете скачивать файлы