(Opera) Donizetti - Roberto Devereux - Miricioiu, Bros, Ganassi, Frontali - Benini - 2012, APE (image+.cue) lossless


 

[Цитировать]

Donizetti - Roberto Devereux - Miricioiu, Bros, Ganassi, Frontali - Benini - 2012, APE (image+.cue) lossless
Жанр: Opera
Страна-производитель диска: UK
Год издания диска: 2012
Издатель (лейбл): Opera Rara
Номер по каталогу: ORC23
Дата записи: 2002
Аудиокодек: APE
Тип рипа: image+.cue
Битрейт аудио: lossless
Продолжительность: 60:03 + 65:28
Источник: собственный рип
Наличие сканов в содержимом раздачи: нет

Исполнители

Conductor - Maurizio Benini
Orchestra - Covent Garden
Chorus - Covent Garden
Elisabetta - Nelly Miricioiu
Duca di Nottingham - Roberto Frontali
Sara - Sonia Ganassi
Roberto Devereux - José Bros
Lord Cecil - Robin Leggate
Sir Gualtiero Raleigh - Graeme Broadbent

ТреклистCD1

01 Sinfonia
02 Act 1. Introduzione. Preludio, Coro. Geme! pallor funero
03 Act 1. Introduzione. Romanza. All' afflitto è dolce il pianto...
04 Act 1. Cavatina. Scena. Duchea... alle fervide preci
05 Act 1. Cavatina. Aria. L'amor suo mi fe' beata
06 Act 1. Cavatina. Cabaletta. Ah! ritorna qual ti spero
07 Act 1. Scena e duetto. Scena. Donna reale
08 Act 1. Scena e duetto. Andante. Un tenero core
09 Act 1. Scena e duetto. Cabaletta. Un lampo, un lampo orrible
10 Act 1. Scena e cavatina. Scena. Roberto... che?
11 Act 1. Scena e cavatina. Larghetto. Forse in quel cor sensibile
12 Act 1. Scena e cavatina. Cabaletta. Qui ribelle ognun ti chiama
13 Act 1. Scena e duetto. Scena. Tutto è silenzio
14 Act 1. Scena e duetto. Larghetto. Dacchè tornasti, ahi misera!
15 Act 1. Scena e duetto. Agitato. Ah! quest'addio fatale

CD2

01 Act 2. Introduzione - Coro. L'ore trascorrono
02 Act 2. Scena e Duettino. ebben? Del reo le sorti...
03 Act 2. Terzetto. Scena. Ecco l'indegno!
04 Act 2. Terzetto. Largo. Alma infida
05 Act 2. Terzetto. Allegro vivace. Scellerato
06 Act 2. Terzetto. Stretta. Va, la morte sul capo ti pende
07 Act 3. Scena e Duetto. Scena. Né riede ancora il mio consorte
08 Act 3. Scena e Duetto. Allegro. Non sai che un nume
09 Act 3. Scena e Duetto. Agitato. All' ambascia ond'io mio struggo
10 Act 3. Scena ed aria. Scena. Ed ancor la tremenda porta...
11 Act 3. Scena ed aria. Aria. A te dirò negli' ultimi singhiozzi... Come uno spirto angelico
12 Act 3. Scena ed aria. Cabaletta. Bagnato il sen di lagrime
13 Act 3. Scena ed aria finale. Scena. E Sara in questi orribili momenti...
14 Act 3. Scena ed aria finale. Aria. Vivi, ingrato
15 Act 3. Scena ed aria finale. Cabaletta. Quel sangue versato...

Лог создания рипаCD1

Exact Audio Copy V1.0 beta 3 from 29. August 2011
EAC extraction logfile from 4. December 2014, 20:34
Miricioiu, Bross, Ganassi, Frontali - Maurizio Benini - Chorus and Orchestra of the Royal Opera House Covent Garden / Donizetti: Roberto Devereux - CD1
Used drive : TS8XDVDRTranscend Adapter: 2 ID: 1
Read mode : Secure
Utilize accurate stream : Yes
Defeat audio cache : Yes
Make use of C2 pointers : No
Read offset correction : 6
Overread into Lead-In and Lead-Out : No
Fill up missing offset samples with silence : Yes
Delete leading and trailing silent blocks : No
Null samples used in CRC calculations : Yes
Used interface : Native Win32 interface for Win NT & 2000
Used output format : Monkey's Audio Lossless Encoder
Selected bitrate : Normal Lossless Compression
Quality : High
Add ID3 tag : Yes
Command line compressor : C:\Program Files (x86)\Monkey's Audio\MAC.exe
Additional command line options : %source% %dest% -c3000
TOC of the extracted CD
Track | Start | Length | Start sector | End sector
---------------------------------------------------------
1 | 0:00.01 | 6:16.05 | 1 | 28205
2 | 6:16.06 | 2:41.63 | 28206 | 40343
3 | 8:57.69 | 3:42.07 | 40344 | 57000
4 | 12:40.01 | 3:17.22 | 57001 | 71797
5 | 15:57.23 | 4:14.34 | 71798 | 90881
6 | 20:11.57 | 3:44.02 | 90882 | 107683
7 | 23:55.59 | 4:41.04 | 107684 | 128762
8 | 28:36.63 | 3:18.02 | 128763 | 143614
9 | 31:54.65 | 2:50.42 | 143615 | 156406
10 | 34:45.32 | 3:10.00 | 156407 | 170656
11 | 37:55.32 | 4:07.47 | 170657 | 189228
12 | 42:03.04 | 3:54.29 | 189229 | 206807
13 | 45:57.33 | 4:59.11 | 206808 | 229243
14 | 50:56.44 | 6:12.58 | 229244 | 257201
15 | 57:09.27 | 2:52.09 | 257202 | 270110
Range status and errors
Selected range
Filename H:\Opera\Donizetti\1837 Roberto Devereux\Donizetti - ROBERTO DEVEREUX - Miricioiu, Bross, Ganassi, Frontali - Benin (London, 07.2002)\CD1.wav
Peak level 100.0 %
Extraction speed 1.7 X
Range quality 100.0 %
Test CRC 829EE815
Copy CRC 829EE815
Copy OK
No errors occurred
AccurateRip summary
Track 1 cannot be verified as accurate (confidence 1) [E9D24A13], AccurateRip returned [A23B7729] (AR v2)
Track 2 cannot be verified as accurate (confidence 1) [9C52239B], AccurateRip returned [00336DC5] (AR v2)
Track 3 cannot be verified as accurate (confidence 1) [149304E7], AccurateRip returned [B3DCC6B4] (AR v2)
Track 4 cannot be verified as accurate (confidence 1) [2909317D], AccurateRip returned [D2900E15] (AR v2)
Track 5 cannot be verified as accurate (confidence 1) [FA16D0AC], AccurateRip returned [BF1A5CB9] (AR v2)
Track 6 cannot be verified as accurate (confidence 1) [2AC7B767], AccurateRip returned [917A3177] (AR v2)
Track 7 cannot be verified as accurate (confidence 1) [F7046068], AccurateRip returned [F7DD871C] (AR v2)
Track 8 cannot be verified as accurate (confidence 1) [BC0C3E92], AccurateRip returned [DCB15715] (AR v2)
Track 9 cannot be verified as accurate (confidence 1) [72C5F6DC], AccurateRip returned [9116A9DF] (AR v2)
Track 10 cannot be verified as accurate (confidence 1) [C3E49863], AccurateRip returned [D3F0A678] (AR v2)
Track 11 cannot be verified as accurate (confidence 1) [D12C6BF5], AccurateRip returned [1D4527C9] (AR v2)
Track 12 cannot be verified as accurate (confidence 1) [706C3C63], AccurateRip returned [EB3D2FCE] (AR v2)
Track 13 cannot be verified as accurate (confidence 1) [B0B447D4], AccurateRip returned [4699B032] (AR v2)
Track 14 cannot be verified as accurate (confidence 1) [4F0E76BF], AccurateRip returned [84521D1A] (AR v2)
Track 15 cannot be verified as accurate (confidence 1) [4E7AADD6], AccurateRip returned [45B43A8F] (AR v2)
No tracks could be verified as accurate
You may have a different pressing from the one(s) in the database
End of status report
==== Log checksum FC77B8B2F5967C632A7A66EEC685E43C28EAFE7588B1C42BACE676C0FE50859A ====

CD2

Exact Audio Copy V1.0 beta 3 from 29. August 2011
EAC extraction logfile from 4. December 2014, 21:57
Miricioiu, Bross, Ganassi, Frontali - Maurizio Benini - Chorus and Orchestra of the Royal Opera House Covent Garden / Donizetti: Roberto Devereux - CD2
Used drive : TS8XDVDRTranscend Adapter: 2 ID: 1
Read mode : Secure
Utilize accurate stream : Yes
Defeat audio cache : Yes
Make use of C2 pointers : No
Read offset correction : 6
Overread into Lead-In and Lead-Out : No
Fill up missing offset samples with silence : Yes
Delete leading and trailing silent blocks : No
Null samples used in CRC calculations : Yes
Used interface : Native Win32 interface for Win NT & 2000
Used output format : Monkey's Audio Lossless Encoder
Selected bitrate : Normal Lossless Compression
Quality : High
Add ID3 tag : Yes
Command line compressor : C:\Program Files (x86)\Monkey's Audio\MAC.exe
Additional command line options : %source% %dest% -c3000
TOC of the extracted CD
Track | Start | Length | Start sector | End sector
---------------------------------------------------------
1 | 0:00.01 | 3:39.31 | 1 | 16456
2 | 3:39.32 | 9:06.16 | 16457 | 57422
3 | 12:45.48 | 1:46.16 | 57423 | 65388
4 | 14:31.64 | 4:03.40 | 65389 | 83653
5 | 18:35.29 | 3:40.24 | 83654 | 100177
6 | 22:15.53 | 2:36.17 | 100178 | 111894
7 | 24:51.70 | 4:06.20 | 111895 | 130364
8 | 28:58.15 | 4:15.27 | 130365 | 149516
9 | 33:13.42 | 3:09.64 | 149517 | 163755
10 | 36:23.31 | 3:53.69 | 163756 | 181299
11 | 40:17.25 | 4:29.29 | 181300 | 201503
12 | 44:46.54 | 3:55.74 | 201504 | 219202
13 | 48:42.53 | 4:05.59 | 219203 | 237636
14 | 52:48.37 | 6:55.66 | 237637 | 268827
15 | 59:44.28 | 5:42.03 | 268828 | 294480
Range status and errors
Selected range
Filename H:\Opera\Donizetti\1837 Roberto Devereux\Donizetti - ROBERTO DEVEREUX - Miricioiu, Bross, Ganassi, Frontali - Benin (London, 07.2002)\CD2.wav
Peak level 100.0 %
Extraction speed 1.7 X
Range quality 100.0 %
Test CRC 8FCE33FB
Copy CRC 8FCE33FB
Copy OK
No errors occurred
AccurateRip summary
Track 1 cannot be verified as accurate (confidence 1) [5CF1D859], AccurateRip returned [5247C563] (AR v2)
Track 2 cannot be verified as accurate (confidence 1) [4C4E65D8], AccurateRip returned [2DB059E3] (AR v2)
Track 3 cannot be verified as accurate (confidence 1) [20825C1A], AccurateRip returned [702A8A1B] (AR v2)
Track 4 cannot be verified as accurate (confidence 1) [779E69C9], AccurateRip returned [9FEC1DBC] (AR v2)
Track 5 cannot be verified as accurate (confidence 1) [34292965], AccurateRip returned [424F9117] (AR v2)
Track 6 cannot be verified as accurate (confidence 1) [964DB794], AccurateRip returned [00EE0221] (AR v2)
Track 7 cannot be verified as accurate (confidence 1) [E9B8322E], AccurateRip returned [14644756] (AR v2)
Track 8 cannot be verified as accurate (confidence 1) [7F2101CB], AccurateRip returned [488E469A] (AR v2)
Track 9 cannot be verified as accurate (confidence 1) [0B7839A0], AccurateRip returned [4DE5FC30] (AR v2)
Track 10 cannot be verified as accurate (confidence 1) [89666F2D], AccurateRip returned [088D1FF2] (AR v2)
Track 11 cannot be verified as accurate (confidence 1) [1162E1C3], AccurateRip returned [647A4D91] (AR v2)
Track 12 cannot be verified as accurate (confidence 1) [C017D559], AccurateRip returned [55714F2B] (AR v2)
Track 13 cannot be verified as accurate (confidence 1) [3F7712AA], AccurateRip returned [555AD411] (AR v2)
Track 14 cannot be verified as accurate (confidence 1) [477992ED], AccurateRip returned [889F4945] (AR v2)
Track 15 cannot be verified as accurate (confidence 1) [FE221206], AccurateRip returned [468C1802] (AR v2)
No tracks could be verified as accurate
You may have a different pressing from the one(s) in the database
End of status report
==== Log checksum 8842F93777C9007254A6ACAF0CE96F430F0FC3E375A39D5E5ABA965D3C97DDDC ====

Содержание индексной карты (.CUE)CD1

REM GENRE Opera
REM DATE 2002
REM DISCID E60E110F
REM COMMENT "ExactAudioCopy v1.0b3"
PERFORMER "Miricioiu, Bross, Ganassi, Frontali - Maurizio Benini - Chorus and Orchestra of the Royal Opera House Covent Garden"
TITLE "Donizetti: Roberto Devereux - CD1"
FILE "CD1.ape" WAVE
TRACK 01 AUDIO
TITLE "Sinfonia"
PERFORMER "Miricioiu, Bross, Ganassi, Frontali - Maurizio Benini - Chorus and Orchestra of the Royal Opera House Covent Garden"
FLAGS DCP
INDEX 00 00:00:00
INDEX 01 00:00:01
TRACK 02 AUDIO
TITLE "Act I - Geme! pallor funero"
PERFORMER "Miricioiu, Bross, Ganassi, Frontali - Maurizio Benini - Chorus and Orchestra of the Royal Opera House Covent Garden"
FLAGS DCP
INDEX 01 06:16:06
TRACK 03 AUDIO
TITLE "Act I - All' afflitto e dolce il pianto"
PERFORMER "Miricioiu, Bross, Ganassi, Frontali - Maurizio Benini - Chorus and Orchestra of the Royal Opera House Covent Garden"
FLAGS DCP
INDEX 01 08:57:69
TRACK 04 AUDIO
TITLE "Act I - Duchea... alle fervide preci"
PERFORMER "Miricioiu, Bross, Ganassi, Frontali - Maurizio Benini - Chorus and Orchestra of the Royal Opera House Covent Garden"
FLAGS DCP
INDEX 01 12:40:01
TRACK 05 AUDIO
TITLE "Act I - L'amor suo mi fe' beata"
PERFORMER "Miricioiu, Bross, Ganassi, Frontali - Maurizio Benini - Chorus and Orchestra of the Royal Opera House Covent Garden"
FLAGS DCP
INDEX 01 15:57:23
TRACK 06 AUDIO
TITLE "Act I - Ah! ritorna qual ti spero"
PERFORMER "Miricioiu, Bross, Ganassi, Frontali - Maurizio Benini - Chorus and Orchestra of the Royal Opera House Covent Garden"
FLAGS DCP
INDEX 01 20:11:57
TRACK 07 AUDIO
TITLE "Act I - Donna reale"
PERFORMER "Miricioiu, Bross, Ganassi, Frontali - Maurizio Benini - Chorus and Orchestra of the Royal Opera House Covent Garden"
FLAGS DCP
INDEX 01 23:55:59
TRACK 08 AUDIO
TITLE "Act I - Un tenero core"
PERFORMER "Miricioiu, Bross, Ganassi, Frontali - Maurizio Benini - Chorus and Orchestra of the Royal Opera House Covent Garden"
FLAGS DCP
INDEX 01 28:36:63
TRACK 09 AUDIO
TITLE "Act I - Un lampo, un lampo orrible"
PERFORMER "Miricioiu, Bross, Ganassi, Frontali - Maurizio Benini - Chorus and Orchestra of the Royal Opera House Covent Garden"
FLAGS DCP
INDEX 01 31:54:65
TRACK 10 AUDIO
TITLE "Act I - Roberto... che?"
PERFORMER "Miricioiu, Bross, Ganassi, Frontali - Maurizio Benini - Chorus and Orchestra of the Royal Opera House Covent Garden"
FLAGS DCP
INDEX 01 34:45:32
TRACK 11 AUDIO
TITLE "Act I - Forse in quel cor sensibile"
PERFORMER "Miricioiu, Bross, Ganassi, Frontali - Maurizio Benini - Chorus and Orchestra of the Royal Opera House Covent Garden"
FLAGS DCP
INDEX 01 37:55:32
TRACK 12 AUDIO
TITLE "Act I - Qui ribelle ognun ti chiama"
PERFORMER "Miricioiu, Bross, Ganassi, Frontali - Maurizio Benini - Chorus and Orchestra of the Royal Opera House Covent Garden"
FLAGS DCP
INDEX 01 42:03:04
TRACK 13 AUDIO
TITLE "Act I - Tutto e silenzio"
PERFORMER "Miricioiu, Bross, Ganassi, Frontali - Maurizio Benini - Chorus and Orchestra of the Royal Opera House Covent Garden"
FLAGS DCP
INDEX 01 45:57:33
TRACK 14 AUDIO
TITLE "Act I - Dacche tornasti, ahi misera!"
PERFORMER "Miricioiu, Bross, Ganassi, Frontali - Maurizio Benini - Chorus and Orchestra of the Royal Opera House Covent Garden"
FLAGS DCP
INDEX 01 50:56:44
TRACK 15 AUDIO
TITLE "Act I - Ah! quest'addio fatale"
PERFORMER "Miricioiu, Bross, Ganassi, Frontali - Maurizio Benini - Chorus and Orchestra of the Royal Opera House Covent Garden"
FLAGS DCP
INDEX 01 57:09:27

CD2

REM GENRE Opera
REM DATE 2002
REM DISCID E40F560F
REM COMMENT "ExactAudioCopy v1.0b3"
PERFORMER "Miricioiu, Bross, Ganassi, Frontali - Maurizio Benini - Chorus and Orchestra of the Royal Opera House Covent Garden"
TITLE "Donizetti: Roberto Devereux - CD2"
FILE "CD2.ape" WAVE
TRACK 01 AUDIO
TITLE "Act II - L'ore trascorrono"
PERFORMER "Miricioiu, Bross, Ganassi, Frontali - Maurizio Benini - Chorus and Orchestra of the Royal Opera House Covent Garden"
FLAGS DCP
INDEX 00 00:00:00
INDEX 01 00:00:01
TRACK 02 AUDIO
TITLE "Act II - Ebben? del reo le sorti"
PERFORMER "Miricioiu, Bross, Ganassi, Frontali - Maurizio Benini - Chorus and Orchestra of the Royal Opera House Covent Garden"
FLAGS DCP
INDEX 01 03:39:32
TRACK 03 AUDIO
TITLE "Act II - Ecco l'indegno!"
PERFORMER "Miricioiu, Bross, Ganassi, Frontali - Maurizio Benini - Chorus and Orchestra of the Royal Opera House Covent Garden"
FLAGS DCP
INDEX 01 12:45:48
TRACK 04 AUDIO
TITLE "Act II - Alma infida"
PERFORMER "Miricioiu, Bross, Ganassi, Frontali - Maurizio Benini - Chorus and Orchestra of the Royal Opera House Covent Garden"
FLAGS DCP
INDEX 01 14:31:64
TRACK 05 AUDIO
TITLE "Act II - Scellerato"
PERFORMER "Miricioiu, Bross, Ganassi, Frontali - Maurizio Benini - Chorus and Orchestra of the Royal Opera House Covent Garden"
FLAGS DCP
INDEX 01 18:35:29
TRACK 06 AUDIO
TITLE "Act II - Va, la morte sul capo di pende"
PERFORMER "Miricioiu, Bross, Ganassi, Frontali - Maurizio Benini - Chorus and Orchestra of the Royal Opera House Covent Garden"
FLAGS DCP
INDEX 01 22:15:53
TRACK 07 AUDIO
TITLE "Act III - Ne riede ancora il mio consorte"
PERFORMER "Miricioiu, Bross, Ganassi, Frontali - Maurizio Benini - Chorus and Orchestra of the Royal Opera House Covent Garden"
FLAGS DCP
INDEX 01 24:51:70
TRACK 08 AUDIO
TITLE "Act III - Non sai che un nume"
PERFORMER "Miricioiu, Bross, Ganassi, Frontali - Maurizio Benini - Chorus and Orchestra of the Royal Opera House Covent Garden"
FLAGS DCP
INDEX 01 28:58:15
TRACK 09 AUDIO
TITLE "Act III - All' ambascia ond'io mio struggo"
PERFORMER "Miricioiu, Bross, Ganassi, Frontali - Maurizio Benini - Chorus and Orchestra of the Royal Opera House Covent Garden"
FLAGS DCP
INDEX 01 33:13:42
TRACK 10 AUDIO
TITLE "Act III - Ed ancor la tremenda porta"
PERFORMER "Miricioiu, Bross, Ganassi, Frontali - Maurizio Benini - Chorus and Orchestra of the Royal Opera House Covent Garden"
FLAGS DCP
INDEX 01 36:23:31
TRACK 11 AUDIO
TITLE "Act III - A te diro negli' ultimi singhiozzi... Como uno spirito"
PERFORMER "Miricioiu, Bross, Ganassi, Frontali - Maurizio Benini - Chorus and Orchestra of the Royal Opera House Covent Garden"
FLAGS DCP
INDEX 01 40:17:25
TRACK 12 AUDIO
TITLE "Act III - Bagnato il sen di lagrime"
PERFORMER "Miricioiu, Bross, Ganassi, Frontali - Maurizio Benini - Chorus and Orchestra of the Royal Opera House Covent Garden"
FLAGS DCP
INDEX 01 44:46:54
TRACK 13 AUDIO
TITLE "Act III - E Sara in questi orribili momenti"
PERFORMER "Miricioiu, Bross, Ganassi, Frontali - Maurizio Benini - Chorus and Orchestra of the Royal Opera House Covent Garden"
FLAGS DCP
INDEX 01 48:42:53
TRACK 14 AUDIO
TITLE "Act III - Vivi, ingrato"
PERFORMER "Miricioiu, Bross, Ganassi, Frontali - Maurizio Benini - Chorus and Orchestra of the Royal Opera House Covent Garden"
FLAGS DCP
INDEX 01 52:48:37
TRACK 15 AUDIO
TITLE "Act III - Quel sangue versato"
PERFORMER "Miricioiu, Bross, Ganassi, Frontali - Maurizio Benini - Chorus and Orchestra of the Royal Opera House Covent Garden"
FLAGS DCP
INDEX 01 59:44:28



Показать сообщения:    

Текущее время: 08-Дек 11:01

Часовой пояс: UTC + 3


Вы не можете начинать темы
Вы не можете отвечать на сообщения
Вы не можете редактировать свои сообщения
Вы не можете удалять свои сообщения
Вы не можете голосовать в опросах
Вы не можете прикреплять файлы к сообщениям
Вы не можете скачивать файлы