(Opera) Rossini - La Cenerentola - de Fabritiis, Simionato, Bruscantini, Benelli, Montarsolo - 1991, APE (image+.cue) lossless


 

[Цитировать]

Gioacchino Rossini (1792-1868)
La Cenerentola
Oliviero de Fabritiis
Florence Maggio Musicale Orchestra

Жанр: Opera
Страна-производитель диска: Germany
Год издания диска: 1991
Издатель (лейбл): Decca/Grand Opera
Номер по каталогу: 433 030-2
Дата записи: July-August 1963
Аудиокодек: APE
Тип рипа: image+.cue
Битрейт аудио: lossless
Продолжительность: 144.46
Источник: собственный рип
Наличие сканов в содержимом раздачи: да
Исполнители:
Giulietta Simionato (Mezzo Soprano) - Angiolina
Giovanni Foiani (Bass) - Alidoro
Mitì Truccato Pace (Mezzo Soprano) - Tisbe
Dora Carral (Soprano) - Clorinda
Paolo Montarsolo (Baritone) - Don Magnificio, Barone di Monte Fiascone
Ugo Benelli (Tenor) - Don Ramiro, Principe di Salerno
Sesto Bruscantini (Bass Baritone) - Dandini, suo cameriere
Conductor: Oliviero de Fabritiis
Orchestra/Ensemble: Florence Maggio Musicale Orchestra

ТреклистDisc 1

1.Sinfonia
2. Act 1. Scene 1. No, no, no
3. Act 1. Scene 1. Date lor mezzo scudo
4. Act 1. Scene 1. Miei rampolli femminini
5. Act 1. Scene 1. Tutto è deserto... Un soave non so che
6. Act 1. Scene 1. Scegli la sposa
7. Act 1. Scene 1. Allegrissimamente, che bei quadri!
8. Act 1. Scene 1. Signor, una parola
9. Act 1. Scene 1. Qui nel mio codice
10. Act 1. Scene 1. Sì, tutto cangerà... Vastro teatro è il mondo
11. Act 1. Scene 2. Ma bravo, bravo, bravo
12. Act 1. Scene 3. Conciossiacosacché trenta botti già gustò

Disc 2

1. Act 1. Scene 3. Zitto, zitto: piano, piano
2. Act 1. Scene 3. Principino, dove siete?
3. Act 1. Scene 3. Venga, inoltri, avanzi il pie'
4. Act 1. Scene 3. Ah! se velata ancor
5. Act 1. Scene 3. Parlar, pensar, vorrei
6. Act 1. Scene 3. Mi par d'essere sognando
7. Act 2. Scene 1. Sia qualunque delle figlie
8. Act 2. Scene 1. Ah! questa bella incognita
9. Act 2. Scene 1. Sì, ritrovarla io giuro
10. Act 2. Scene 1. La notte è omai vicina
11. Act 2. Scene 1. Un segreto d'importanza
12. Act 2. Scene 2. Una volta c'era un re
13. Act 2. Scene 2. Scusate, amici
14. Act 2. Scene 2. Siete voi?... Voi prence siete?
15. Act 2. Scene 2. Ah, signor, s'è ver che in petto
16. Act 2. Scene 3. Della Fortuna instabile
17. Act 2. Scene 3. Nacqui all'affanno
18. Act 2. Scene 3. Non più mesta accanto al fuoco

Отчёт EACDisc 1

Exact Audio Copy V1.0 beta 3 from 29. August 2011
EAC extraction logfile from 20. July 2014, 16:56
Simionato, Benelli, Bruscantini, Montasolo / La Cenerentola de Fabritiis
Used drive : PIONEER DVD-RW DVRTD11RS Adapter: 1 ID: 0
Read mode : Secure
Utilize accurate stream : Yes
Defeat audio cache : Yes
Make use of C2 pointers : No
Read offset correction : 6
Overread into Lead-In and Lead-Out : No
Fill up missing offset samples with silence : Yes
Delete leading and trailing silent blocks : No
Null samples used in CRC calculations : Yes
Used interface : Native Win32 interface for Win NT & 2000
Used output format : User Defined Encoder
Selected bitrate : 128 kBit/s
Quality : High
Add ID3 tag : No
Command line compressor : C:\Program Files\Monkey's Audio\MAC.exe
Additional command line options : %source% %dest% -c3000
TOC of the extracted CD
Track | Start | Length | Start sector | End sector
---------------------------------------------------------
1 | 0:00.33 | 8:04.65 | 33 | 36397
2 | 8:05.23 | 10:17.65 | 36398 | 82737
3 | 18:23.13 | 0:52.70 | 82738 | 86707
4 | 19:16.08 | 6:03.10 | 86708 | 113942
5 | 25:19.18 | 11:40.65 | 113943 | 166507
6 | 37:00.08 | 8:06.35 | 166508 | 202992
7 | 45:06.43 | 1:58.02 | 202993 | 211844
8 | 47:04.45 | 4:26.08 | 211845 | 231802
9 | 51:30.53 | 6:59.47 | 231803 | 263274
10 | 58:30.25 | 4:44.08 | 263275 | 284582
11 | 63:14.33 | 1:57.67 | 284583 | 293424
12 | 65:12.25 | 5:18.48 | 293425 | 317322
Range status and errors
Selected range
Filename C:\Documents and Settings\Администратор\Мои документы\CDImage.wav
Peak level 87.2 %
Extraction speed 2.3 X
Range quality 99.9 %
Test CRC 38A8D8E1
Copy CRC 38A8D8E1
Copy OK
No errors occurred
AccurateRip summary
Track 1 accurately ripped (confidence 1) [24F91070] (AR v2)
Track 2 accurately ripped (confidence 2) [4987AE7D] (AR v2)
Track 3 accurately ripped (confidence 2) [EB8D5428] (AR v2)
Track 4 accurately ripped (confidence 2) [B219EE08] (AR v2)
Track 5 accurately ripped (confidence 2) [A5931C2A] (AR v2)
Track 6 accurately ripped (confidence 2) [36F786B5] (AR v2)
Track 7 accurately ripped (confidence 2) [8FCA0975] (AR v2)
Track 8 accurately ripped (confidence 2) [67E969D9] (AR v2)
Track 9 accurately ripped (confidence 2) [930D76AD] (AR v2)
Track 10 accurately ripped (confidence 2) [6BC7D6AF] (AR v2)
Track 11 accurately ripped (confidence 2) [AC440811] (AR v2)
Track 12 accurately ripped (confidence 2) [8091752A] (AR v2)
All tracks accurately ripped
End of status report
---- CUETools DB Plugin V2.1.3
[CTDB TOCID: HGh2Bx62y8EjzY8OCoaC7EQdId0-] disk not present in database, Submit result: database access error: Невозможно разрешить удаленное имя: 'db.cuetools.net'
==== Log checksum 938CBC17680D33D9433993779F68C23DF676106B4895F963A479E438E5A73CBE ====

Disc 2

Exact Audio Copy V1.0 beta 3 from 29. August 2011
EAC extraction logfile from 21. July 2014, 11:43
Simionato, Benelli, Bruscantini, Montasolo / La Cenerentola de Fabritiis
Used drive : PIONEER DVD-RW DVRTD11RS Adapter: 1 ID: 0
Read mode : Secure
Utilize accurate stream : Yes
Defeat audio cache : Yes
Make use of C2 pointers : No
Read offset correction : 6
Overread into Lead-In and Lead-Out : No
Fill up missing offset samples with silence : Yes
Delete leading and trailing silent blocks : No
Null samples used in CRC calculations : Yes
Used interface : Native Win32 interface for Win NT & 2000
Used output format : User Defined Encoder
Selected bitrate : 128 kBit/s
Quality : High
Add ID3 tag : No
Command line compressor : C:\Program Files\Monkey's Audio\MAC.exe
Additional command line options : %source% %dest% -c3000
TOC of the extracted CD
Track | Start | Length | Start sector | End sector
---------------------------------------------------------
1 | 0:00.33 | 3:29.65 | 33 | 15772
2 | 3:30.23 | 2:29.22 | 15773 | 26969
3 | 5:59.45 | 2:27.18 | 26970 | 38012
4 | 8:26.63 | 5:30.17 | 38013 | 62779
5 | 13:57.05 | 4:08.13 | 62780 | 81392
6 | 18:05.18 | 3:31.47 | 81393 | 97264
7 | 21:36.65 | 4:50.30 | 97265 | 119044
8 | 26:27.20 | 2:55.58 | 119045 | 132227
9 | 29:23.03 | 4:39.25 | 132228 | 153177
10 | 34:02.28 | 2:00.12 | 153178 | 162189
11 | 36:02.40 | 6:17.48 | 162190 | 190512
12 | 42:20.13 | 5:26.22 | 190513 | 214984
13 | 47:46.35 | 1:14.33 | 214985 | 220567
14 | 49:00.68 | 7:06.70 | 220568 | 252587
15 | 56:07.63 | 6:12.47 | 252588 | 280534
16 | 62:20.35 | 3:26.53 | 280535 | 296037
17 | 65:47.13 | 4:16.40 | 296038 | 315277
18 | 70:03.53 | 3:12.50 | 315278 | 329727
Range status and errors
Selected range
Filename C:\Documents and Settings\Администратор\Мои документы\CDImage.wav
Peak level 95.0 %
Extraction speed 2.3 X
Range quality 100.0 %
Test CRC 573F3A60
Copy CRC 573F3A60
Copy OK
No errors occurred
AccurateRip summary
Track 1 accurately ripped (confidence 1) [175C9801] (AR v2)
Track 2 accurately ripped (confidence 2) [0E108FBC] (AR v2)
Track 3 accurately ripped (confidence 2) [8FAAB9F2] (AR v2)
Track 4 accurately ripped (confidence 2) [1C206074] (AR v2)
Track 5 accurately ripped (confidence 2) [2A63E1CE] (AR v2)
Track 6 accurately ripped (confidence 2) [E8D4E09C] (AR v2)
Track 7 accurately ripped (confidence 2) [3B270406] (AR v2)
Track 8 accurately ripped (confidence 2) [098DEF1E] (AR v2)
Track 9 accurately ripped (confidence 2) [B5AAF284] (AR v2)
Track 10 accurately ripped (confidence 2) [22FE9FA9] (AR v2)
Track 11 accurately ripped (confidence 2) [979C4CB8] (AR v2)
Track 12 accurately ripped (confidence 2) [624D20ED] (AR v2)
Track 13 accurately ripped (confidence 2) [A4E685C2] (AR v2)
Track 14 accurately ripped (confidence 2) [7AE3AC6B] (AR v2)
Track 15 accurately ripped (confidence 2) [74440658] (AR v2)
Track 16 accurately ripped (confidence 2) [2977BD81] (AR v2)
Track 17 accurately ripped (confidence 2) [6E36A97B] (AR v2)
Track 18 accurately ripped (confidence 1) [97324C3B] (AR v2)
All tracks accurately ripped
End of status report
---- CUETools DB Plugin V2.1.3
[CTDB TOCID: yXic3YL9JPk4zfFqGLL1cFMDjAI-] disk not present in database, Submit result: discs with pregaps not supported in this protocol version
==== Log checksum A999F6BF9183C8AB523B8BD4BB8C0EA7B7FAF34E4933E8633C05D9ED2857CF89 ====



Показать сообщения:    

Текущее время: 05-Дек 21:40

Часовой пояс: UTC + 3


Вы не можете начинать темы
Вы не можете отвечать на сообщения
Вы не можете редактировать свои сообщения
Вы не можете удалять свои сообщения
Вы не можете голосовать в опросах
Вы не можете прикреплять файлы к сообщениям
Вы не можете скачивать файлы