(Classical) Meyerbeer - Struensee [Incidental Music] * Les Patineurs [Ballet] * L'Africaine [prelude] (NDR Chor & Radio Philharmonie Hannover des NDR, Jurowski/Михаил Юровский) - 1998, APE (image+.cue) lossless


 

[Цитировать]

Giacomo Meyerbeer - Struensee [Incidental Music] * Les Patineurs [Ballet] * L'Africaine[prelude]
Жанр: Classical
Страна-производитель диска: Germany
Год издания диска: 1998
Издатель (лейбл): CPO
Номер по каталогу: 999 336-2
Дата записи: 1995
Аудиокодек: APE
Тип рипа: image+.cue
Битрейт аудио: lossless
Продолжительность: 68'58
Источник: собственный рип
Наличие сканов в содержимом раздачи: да
Треклист:
Struensee, Incidental Music
1. Overture
2. Melodrama to Act I, scene 9
3. Entr'acte 1
4. Fanfare to Act II, scene 11
5. March and Chorus to Act II, scene 19
6. Music for Act II, scene 15
7. Entr'acte 2
8. Entr'acte 3
9. Entr'acte 4
10. Funeral March to Act V, scene 7
11. Melodrama to Act V, scene 7
12. Concluding scene of Act V
Les Patineurs, Ballet Music from Le Prophète
13. Valse
14. Rédovva
15. Quadrille
16. Galop
L'Africaine, Prelude
17. L'Africaine, Prelude
Исполнители:
NDR Chor
Radio Philharmonie Hannover des NDR
Michail Jurowski

Лог создания рипа

Exact Audio Copy V1.0 beta 3 from 29. August 2011
EAC extraction logfile from 27. November 2014, 12:36
Meyerbeer / Struensee-Les Patineurs-L'Africaine, prelude
Used drive : TSSTcorpCDDVDW SE-208AB Adapter: 1 ID: 0
Read mode : Secure
Utilize accurate stream : Yes
Defeat audio cache : Yes
Make use of C2 pointers : No
Read offset correction : 6
Overread into Lead-In and Lead-Out : No
Fill up missing offset samples with silence : Yes
Delete leading and trailing silent blocks : No
Null samples used in CRC calculations : Yes
Used interface : Native Win32 interface for Win NT & 2000
Used output format : Monkey's Audio Lossless Encoder
Selected bitrate : High Lossless Compression
Quality : High
Add ID3 tag : Yes
Command line compressor : C:\Program Files (x86)\Exact Audio Copy\MAC\MAC.exe
TOC of the extracted CD
Track | Start | Length | Start sector | End sector
---------------------------------------------------------
1 | 0:00.32 | 14:29.68 | 32 | 65274
2 | 14:30.25 | 0:59.15 | 65275 | 69714
3 | 15:29.40 | 8:36.67 | 69715 | 108481
4 | 24:06.32 | 0:16.63 | 108482 | 109744
5 | 24:23.20 | 2:25.05 | 109745 | 120624
6 | 26:48.25 | 2:46.55 | 120625 | 133129
7 | 29:35.05 | 7:08.57 | 133130 | 165286
8 | 36:43.62 | 5:59.70 | 165287 | 192281
9 | 42:43.57 | 3:41.40 | 192282 | 208896
10 | 46:25.22 | 1:18.60 | 208897 | 214806
11 | 47:44.07 | 2:10.63 | 214807 | 224619
12 | 49:54.70 | 2:11.40 | 224620 | 234484
13 | 52:06.35 | 1:36.60 | 234485 | 241744
14 | 53:43.20 | 7:13.65 | 241745 | 274284
15 | 60:57.10 | 4:38.10 | 274285 | 295144
16 | 65:35.20 | 4:40.67 | 295145 | 316211
17 | 70:16.12 | 4:48.65 | 316212 | 337876
Range status and errors
Selected range
Filename D:\EAC\Meyerbeer - Struensee-Les Patineurs-L'Africaine, prelude.wav
Peak level 99.9 %
Extraction speed 5.2 X
Range quality 100.0 %
Test CRC C7C2CEA0
Copy CRC C7C2CEA0
Copy OK
No errors occurred
AccurateRip summary
Track 1 accurately ripped (confidence 2) [3C01FE60] (AR v1)
Track 2 accurately ripped (confidence 2) [3BD711DA] (AR v1)
Track 3 accurately ripped (confidence 2) [A879C22E] (AR v1)
Track 4 accurately ripped (confidence 2) [F6BCCAB7] (AR v1)
Track 5 accurately ripped (confidence 2) [CBEFF9DD] (AR v1)
Track 6 accurately ripped (confidence 2) [894AC4CF] (AR v1)
Track 7 accurately ripped (confidence 2) [8516602E] (AR v1)
Track 8 accurately ripped (confidence 2) [59522072] (AR v1)
Track 9 accurately ripped (confidence 2) [3A6A8D64] (AR v1)
Track 10 accurately ripped (confidence 2) [5D241DB3] (AR v1)
Track 11 accurately ripped (confidence 2) [950DAD76] (AR v1)
Track 12 accurately ripped (confidence 2) [11B89C8E] (AR v1)
Track 13 accurately ripped (confidence 2) [12A662D6] (AR v1)
Track 14 accurately ripped (confidence 2) [D0507BB1] (AR v1)
Track 15 accurately ripped (confidence 2) [FEBF8FBD] (AR v1)
Track 16 accurately ripped (confidence 2) [ED89A97C] (AR v1)
Track 17 accurately ripped (confidence 2) [D1354DE2] (AR v1)
All tracks accurately ripped
End of status report
---- CUETools DB Plugin V2.1.3
[CTDB TOCID: z8qjZWqVmkfpc1mZozo3WK04zTY-] disk not present in database, Submit result: discs with pregaps not supported in this protocol version
==== Log checksum 97EDEF37273CC11F6BA8D28AA7A609BC52EDE5E3AB9392EED8892FC6EE0CE160 ====

Содержание индексной карты (.CUE)

REM GENRE "Chorus / Ballet"
REM DATE 1995
REM DISCID 19119911
REM COMMENT "ExactAudioCopy v1.0b3"
CATALOG 0761203933624
PERFORMER "Meyerbeer"
TITLE "Struensee-Les Patineurs-L'Africaine, prelude"
FILE "Meyerbeer - Struensee-Les Patineurs-L'Africaine, prelude.ape" WAVE
TRACK 01 AUDIO
TITLE "Overture"
PERFORMER "Meyerbeer"
ISRC DEB209733601
INDEX 00 00:00:00
INDEX 01 00:00:32
TRACK 02 AUDIO
TITLE "Melodrama to Act I, scene 9"
PERFORMER "Meyerbeer"
ISRC DEB209733602
INDEX 00 14:28:17
INDEX 01 14:30:25
TRACK 03 AUDIO
TITLE "Entr'acte 1"
PERFORMER "Meyerbeer"
ISRC DEB209733603
INDEX 01 15:29:40
TRACK 04 AUDIO
TITLE "Fanfare to Act II, scene 11"
PERFORMER "Meyerbeer"
ISRC DEB209733604
INDEX 00 24:03:50
INDEX 01 24:06:32
TRACK 05 AUDIO
TITLE "March and Chorus to Act II, scene 19"
PERFORMER "Meyerbeer"
ISRC DEB209733605
INDEX 01 24:23:20
TRACK 06 AUDIO
TITLE "Music for Act II, scene 15"
PERFORMER "Meyerbeer"
ISRC DEB209733606
INDEX 01 26:48:25
TRACK 07 AUDIO
TITLE "Entr'acte 2"
PERFORMER "Meyerbeer"
ISRC DEB209733607
INDEX 00 29:32:60
INDEX 01 29:35:05
TRACK 08 AUDIO
TITLE "Entr'acte 3"
PERFORMER "Meyerbeer"
ISRC DEB209733608
INDEX 00 36:41:42
INDEX 01 36:43:62
TRACK 09 AUDIO
TITLE "Entr'acte 4"
PERFORMER "Meyerbeer"
ISRC DEB209733609
INDEX 00 42:42:22
INDEX 01 42:43:57
TRACK 10 AUDIO
TITLE "Funeral March to Act V, scene 7"
PERFORMER "Meyerbeer"
ISRC DEB209733610
INDEX 00 46:23:12
INDEX 01 46:25:22
TRACK 11 AUDIO
TITLE "Melodrama to Act V, scene 7"
PERFORMER "Meyerbeer"
ISRC DEB209733611
INDEX 00 47:43:20
INDEX 01 47:44:07
TRACK 12 AUDIO
TITLE "Concluding scene of Act V"
PERFORMER "Meyerbeer"
ISRC DEB209733612
INDEX 00 49:54:15
INDEX 01 49:54:70
TRACK 13 AUDIO
TITLE "Valse"
PERFORMER "Meyerbeer"
ISRC DEB209733613
INDEX 00 51:58:72
INDEX 01 52:06:35
TRACK 14 AUDIO
TITLE "Rédovva"
PERFORMER "Meyerbeer"
ISRC DEB209733614
INDEX 01 53:43:20
TRACK 15 AUDIO
TITLE "Quadrille"
PERFORMER "Meyerbeer"
ISRC DEB209733615
INDEX 00 60:55:17
INDEX 01 60:57:10
TRACK 16 AUDIO
TITLE "Galop"
PERFORMER "Meyerbeer"
ISRC DEB209733616
INDEX 01 65:35:20
TRACK 17 AUDIO
TITLE "L'Africaine, Prelude"
PERFORMER "Meyerbeer"
ISRC DEB209733617
INDEX 00 70:13:70
INDEX 01 70:16:12



Показать сообщения:    

Текущее время: 10-Дек 13:45

Часовой пояс: UTC + 3


Вы не можете начинать темы
Вы не можете отвечать на сообщения
Вы не можете редактировать свои сообщения
Вы не можете удалять свои сообщения
Вы не можете голосовать в опросах
Вы не можете прикреплять файлы к сообщениям
Вы не можете скачивать файлы