Как уходили кумиры - Игорь Тальков [2007 г.; документальный, биография; DVB]


Статистика раздачи [Обновить пиров]
Размер:  871 MB   |    Зарегистрирован:  8 месяцев 18 дней   |    Скачан:  0 раз

Полного источника не было: Никогда

 
   
 
 
 

[Цитировать]

Как уходили кумиры - Игорь Тальков
Год выпуска: 2007
Страна: Россия
Жанр: документальный, биография
Продолжительность: 00:44:59
Телеканал: ДТВ
Описание: Душа этого человека навсегда поселилась в Москве на Чистых Прудах. Когда-то Игорь спел о них песню, и вложил в неё всю боль разочарований. А их в жизни певца было немало. Тальков предчувствовал свою смерть. Однажды он летел на гастроли со своей группой. Кто-то из музыкантов завёл разговор о несчастных случаях, которые нередко случаются в воздухе. На это певец ответил: «Не бойтесь со мной летать. В авиакатастрофе я никогда не погибну. Меня убьют на земле, при большом скоплении народа, а убийцу не найдут». Он оказался прав. 6 октября 1991 года во время гала-концерта, на глазах нескольких десятков людей, выстрел из пистолета оборвал жизнь Игоря Талькова...
Качество: DVB
Формат: MPG
Видео кодек: MPEG2
Видео: MPEG2 Video 704x576 (4:3) 25fps 2462kbps
Аудио: MPEG Audio 48000Hz stereo 192kbps

MI

General
Complete name : Как уходили кумиры - Игорь Тальков (2007) [ДТВ].mpg
Format : MPEG-PS
File size : 871 MiB
Duration : 44mn 59s
Overall bit rate mode : Variable
Overall bit rate : 2 707 Kbps
Writing library : (dvd5: Jun 16 2014)
Video
ID : 224 (0xE0)
Format : MPEG Video
Format version : Version 2
Format profile : Main@Main
Format settings, BVOP : No
Format settings, Matrix : Custom
Format settings, GOP : Variable
Duration : 44mn 59s
Bit rate mode : Variable
Bit rate : 2 462 Kbps
Maximum bit rate : 15.0 Mbps
Width : 704 pixels
Height : 576 pixels
Display aspect ratio : 4:3
Frame rate : 25.000 fps
Standard : PAL
Color space : YUV
Chroma subsampling : 4:2:0
Bit depth : 8 bits
Scan type : Interlaced
Scan order : Top Field First
Compression mode : Lossy
Bits/(Pixel*Frame) : 0.243
Time code of first frame : 00:00:00:00
Time code source : Group of pictures header
Stream size : 792 MiB (91%)
Source encoded stream size : (dvd5: Jun 16 2014)
Writing library : (dvd5: Jun 16 2014)
Audio
ID : 192 (0xC0)
Format : MPEG Audio
Format version : Version 1
Format profile : Layer 2
Duration : 44mn 59s
Bit rate mode : Constant
Bit rate : 192 Kbps
Channel(s) : 2 channels
Sampling rate : 48.0 KHz
Compression mode : Lossy
Stream size : 61.8 MiB (7%)
[teatrix.ru].t19620.torrent 
Торрент: Зарегистрирован [ 2016-03-18 12:41 ] · 04D3E745DE6369268FA1208C45A4AD98B63FB33C

Скачать .torrent

Скачать

18 KB

Статус: проверено
Скачан: 0 раз
Размер: 871 MB
terms.php



Быстрый ответ

Имя:

      
Для отправки сообщений необходимо включить JavaScript
Показать сообщения:    

Текущее время: 05-Дек 19:35

Часовой пояс: UTC + 3


Вы можете начинать темы
Вы можете отвечать на сообщения
Вы не можете редактировать свои сообщения
Вы не можете удалять свои сообщения
Вы не можете голосовать в опросах
Вы не можете прикреплять файлы к сообщениям
Вы можете скачивать файлы