(Orchestral/Ballet) Игорь Стравинский - Igor Stravinsky - Ballets, Stage Works, Orchestral Works - Ernest Ansermet (Decca) - 8 CD set - 2001, FLAC (image+.cue) lossless


Статистика раздачи [Обновить пиров]
Размер:  2.27 GB   |    Зарегистрирован:  8 месяцев 20 дней   |    Скачан:  1 раз

Полного источника не было: 12 дней

 
   
 
 
 

[Цитировать]

Igor Stravinsky
Ballets, Stage Works, Orchestral Works
Ernest Ansermet
Жанр: Orchestral/Ballet
Страна-производитель диска: Germany
Год издания диска: 2001
Издатель (лейбл): Decca
Номер по каталогу: 467 818-2
Дата записи: 1955-1965
Аудиокодек: FLAC
Тип рипа: image+.cue
Битрейт аудио: lossless
Источник: релизер
сайт-источник/ник/другое: Odeonmusic
Наличие сканов в содержимом раздачи: да

Исполнители & треклист

Conductor: Ernest Ansermet
Orchestra: L'Orchestre de la Suisse Romande

Disc 1 - The Firebird, The Song of the Nightingale

The Firebird01. Introduction (1/15) [0:02:33.43]
02. Tableau 1: Kashchei's Magic Garden (2/15) [0:01:38.62]
03. Appearance of the Firebird Pursued by Prince Ivan (3/15) [0:02:18.45]
04.The Firebird's Dance (4/15) [0:01:27.08]
05.Prince Ivan Captures the Firebird (5/15) [0:00:57.10]
06. Supplications of the Firebird (6/15) [0:07:27.57]
07. The Princesses' Game With the Golden Apples (7/15) [0:02:31.08]
08. Sudden Appearance of Prince Ivan (8/15) [0:01:18.20]
09.The Princesses' Round Dance (9/15) [0:03:48.57]
10. Daybreak, Prince Ivan Enters Kashei's Palace (10/15) [0:01:29.43]
11. Magic Carillon, Appearance of Kashchei's Guardian Monsters, Prince Ivan's Capture (11/15) [0:05:07.70]
12. Dance of Kashchei's Retinue Under the Firebird's Spell (12/15) [0:00:48.15]
13. Infernal Dance of All Kashchei's Subjects (13/15) [0:04:47.37]
14. Lullaby, Kashchei Awakes, Death of Kashchei, Darkness (14/15) [0:04:59.18]
15.Dissolution of the Palace and Kashei's Spells, Animation of Petrified Warriors, General Rejoicing (15/15) [0:03:21.62]
The Song of the Nightingale16. Feast in the Emperor's Palace (1/3) [0:05:57.08]
17. The Two Nightingales (2/3) [0:06:31.65]
18. Illness and Recovery of the Emperor of China (3/3) [0:09:10.35]

Disc 2 – Petrouchka, Le Sacre du printemps

Petrouchka01. Tableau 1: Fête populaire de la Semaine grasse [0:09:58.35]
02. Tableau 2: Chez Petrouchka [0:04:19.23]
03. Tableau 3: Chez le Maure [0:07:26.42]
04. Tableau 4: Fête populaire de la Semaine grasse, vers le soir [0:13:35.50]Le Sacre du printempsPartie 1
05. L'Adoration de la terre: Introduction [0:03:22.23]
06. Les augures printaniers - Danses des adolescentes [0:03:35.22]
07. Jeu du rapt [0:01:17.70]
08. Rondes printanières [0:03:15.28]
09. Jeux des cités [0:01:32.55]
10. Cortège du sage [0:01:06.17]
11. Le sage [0:00:24.00]
12. Danse de la terre [0:01:18.40]
Partie 2
13. Le Sacrifice: Introduction [0:03:52.68]
14. Cercles mystérieux des adolescentes [0:03:06.22]
15. Glorification de l'élue [0:01:42.55]
16. Évocation des ancêstres [0:00:44.73]
17. Action rituelle des ancêstres [0:03:34.35]
18. L Danse sacrale, l'élue [0:04:59.25]

Disc 3 – Pulcinella, Apollon musagète

Pulcinella01. Ouverture: Allegro moderato [0:01:51.05]
02. Serenata: Larghetto: "Mentre l'erbetta" [0:03:30.33]
03. Scherzino: Allegro [0:01:35.40]
04. Allegro [0:01:18.00]
05. Andantino [0:01:16.12]
06. Allegro [0:01:45.40]
07. Ancora poco meno: "Contento forse vivere" [0:01:46.43]
08. Allegro assai [0:01:55.35]
09. Allegro - alla breve: "Con queste paroline" [0:02:13.65]
10. "Sento dire no'ncè pace"-"Una te fa la zembrece" [0:05:26.02]
11. Allegro - alla breve [0:01:14.55]
12. Tarantella [0:01:19.23]
13. Andantino: "Se tu m'ami" [0:02:36.62]
14. Allegro [0:00:52.45]
15. Allegro [0:03:59.13]
16. Gavotta con due variazioni [0:01:31.70]
17. Tempo di minuetto: "Pupillette, fiammette d'amore" [0:02:22.62]
18. Allegro assai [0:02:23.25]Chorus: Boris Carmeli bass • Marilyn Tyler soprano • Carlo Franzini tenor
Apollon musagète
19. Birth of Apollo [0:04:38.43]
20. Variation of Apollo (Apollo and the Muses) [0:02:42.00]
21. Pas d'action (Apollo and the 3 Muses) [0:04:29.45]
22. Variation of Calliope (the Alexandrine) [0:01:26.22]
23. Variation of Polyhymnia [0:01:16.58]
24. Variation of Terpsichore [0:01:43.27]
25. Variation of Apollo [0:02:24.43]
26. Pas de deux (Apollo and Terpsichore) [0:03:51.12]
27. Coda [0:02:55.03]
28. Apotheosis [0:03:23.22]

Disc 4 - Le Baiser de la Fe, Renard

Le Baiser de la Fe
01. Lullaby in the storm [0:08:22.58]
02. A Village Fete [0:11:04.50]
03. By the Mill [0:14:41.72]
04. The Lullaby of the Land beyond Time and Place [0:08:50.35]
Conductor: Ernest Ansermet
05. Renard [0:16:38.10]
Chorus: Gerald English, John Mitchinson tenors
Peter Glossop baritone
Joseph Rouleau bass
John Leach cimbalom

Disc 5 - L'histoire du soldat, Pulcinella Suite

L'histoire du soldat
01. Marche de soldat [0:01:42.38]
02. Musique pour scene 1 [0:02:39.50]
03. Musique pour scene 2 [0:02:24.57]
04. Marche royale [0:02:39.53]
05. Petit concert [0:02:56.65]
06. Tango - Waltz - Ragtime [0:06:13.22]
07. Danse du Diable [0:01:27.53]
08. Chorale [0:03:08.62]
09. Marche triomphale du Diable [0:02:18.43]
Pulcinella Suite
10. Sinfonia [0:01:51.12]
11. Serenata [0:03:11.50]
12. Scherzino [0:01:32.63]
13. Allegro [0:01:12.50]
14. Andantino [0:01:17.55]
15. Tarantella [0:02:00.35]
16. Tocata [0:00:52.25]
17. Gavotta con due variazione [0:04:07.20]
18. Vivo [0:01:28.30]
19. Minuetto [0:02:30.72]
20. Finale [0:02:08.00]

Disc 7 - Symphony in C, Symphony in Three Movements, Symphonies of wind instruments

Symphony in C
01. I. Moderato alla breve [0:10:45.84]
02. II. Larghetto concertante [0:08:01.26]
03. III. Allegretto [0:05:02.93]
04. IV. Largo–Tempo giusto alla breve [0:07:17.93]
Symphony in Three Movements
05. I. ♩= 160 [0:10:33.53]
06. II. Andante [0:05:48.76]
07. III. Con moto [0:06:23.64]
08. Symphonies of wind instruments [0:09:14.06]

Disc 6 - Concerto for piano & wind instruments, Capriccio for piano & orchestra, Suite No. 1, Suite No. 2, 4 Etudes, Scherzo a la russe

Concerto for piano & wind instruments
01. I. Largo - Allegro [0:06:49.45]
02. II. Largo [0:06:17.15]
03. III. Allegro [0:04:44.65]
Capriccio for piano & orchestra
04. I. Presto [0:06:32.55]
05. II. Andante rapsodisco [0:04:56.13]
06. III. Andante caprioso ma tempo giusto [0:05:33.27]
Nikita Magaloff piano
Suite No. 1
07. Andante [0:01:18.03]
08. Napolitana [0:01:05.40]
09. Espanola [0:00:58.15]
10. Balaika [0:01:00.00]
Suite No. 2
11. Marche [0:01:15.20]
12. Valse [0:01:59.12]
13. Polka [0:01:00.10]
14. Galop [0:02:17.48]
4 Etudes
15. I. Danse [0:00:59.50]
16. II. Excentrique [0:01:55.25]
17. III. Cantique [0:04:06.30]
18. IV. Madrid [0:02:48.37]
19. Scherzo a la russe [0:04:18.08]

Disc 8 - Symphonie de psaumes (1930), Les Noces (1923), Mavra, opéra comique en un acte d'après Pushkin (1922)

Symphonie de psaumes (1930)
01. 1. Psaume XXXIX [0:03:36.00]
02. 2. Psaume XL [0:07:11.77]
03. 3. Psaume CL [0:10:33.02]
Choeur des jeunes de Lausanne
Choeur de Radio Lausanne
Andre Charlet
chorus director
Les Noces (1923)
04. Tableau 1: La tresse [0:04:58.80]
05. Tableau 2: Chez le marié [0:06:18.90]
06. Tableau 3: Le départ de la mariée [0:03:30.93]
07. Tableau 4: Le repas de noces [0:10:15.16]
Basia Retchitzka soprano, Lucienne Devallier contraltoHugues Cuenod tenor, Heinz Rehfuss baritone
Motet de Geneve
Vladimir Diakoff director
Renee Peter, Doris Rossiaud, Roger Aubert, Jacques Horneffer
pianosMavra, opéra comique en un acte d'après Pushkin (1922)
08. 1. Overture [0:02:45.46]
09. 2. Air [Parasha] [0:01:16.24]
10. 3. Gypsy song [Hussar, Parasha] [0:03:46.06]
11. 4. Dialogue [Mother, Parasha] [0:00:47.73]
12. 5. Air [Mother] [0:02:20.56]
13. 6. Dialogue [Mother, Neighbour] [0:00:15.57]
14. 7. Duet [Mother, Neighbour] [0:03:12.02]
15. 8. Dialogue [Mother, Neighbour, Parasha, Hussar] [0:00:39.04]
16. 9. Quarter [Mother, Neighbour, Parasha, Hussar] [0:02:08.49]
17. 10. Dialogue [Mother, Neighbour] [0:00:44.37]
18. 11. Duet [Hussar, Parasha] [0:04:46.93]
19. 12. Dialogue [Hussar, Parasha, Mother] [0:00:47.06]
20. 13. Air [Hussar] [0:02:28.42]
21. 14. Coda [Mother, Neighbour, Parasha, Hussar] [0:01:44.50]
ParashaJoan CarlyleHer Mother Helen WattsTheir Heighbour Monica SinclairVassily the Hussar, disguised the cook Mavra Kenneth Macdonald

Отчет EACDisc 1

Exact Audio Copy V1.0 beta 3 from 29. August 2011
EAC extraction logfile from 4. November 2013, 8:04
Ernest Ansermet / Stravinsky - Ballets, Stage Works, Orchestral Works - Ernest Ansermet (Disc 1)
Used drive : TSSTcorpCDDVDW SH-222BB Adapter: 2 ID: 1
Read mode : Secure
Utilize accurate stream : Yes
Defeat audio cache : Yes
Make use of C2 pointers : No
Read offset correction : 6
Overread into Lead-In and Lead-Out : No
Fill up missing offset samples with silence : Yes
Delete leading and trailing silent blocks : No
Null samples used in CRC calculations : Yes
Used interface : Native Win32 interface for Win NT & 2000
Used output format : User Defined Encoder
Selected bitrate : 1024 kBit/s
Quality : High
Add ID3 tag : No
Command line compressor : C:\Program Files\Exact Audio Copy\Flac\flac.exe
Additional command line options : -8 -V -T "TITLE=%title%" -T "ARTIST=%artist%" -T "ALBUMARTIST=%albumartist%" -T "ALBUM=%albumtitle%" -T "DATE=%year%" -T "TRACKNUMBER=%tracknr%" -T "TRACKTOTAL=%numtracks%" -T "GENRE=%genre%" -T "COMMENT=%comment%" -T "PERFORMER=%albuminterpret%" -T "COMPOSER=%composer%" %source% -o %dest%
TOC of the extracted CD
Track | Start | Length | Start sector | End sector
---------------------------------------------------------
1 | 0:00.32 | 2:33.43 | 32 | 11549
2 | 2:34.00 | 1:38.62 | 11550 | 18961
3 | 4:12.62 | 2:18.45 | 18962 | 29356
4 | 6:31.32 | 1:27.08 | 29357 | 35889
5 | 7:58.40 | 0:57.10 | 35890 | 40174
6 | 8:55.50 | 7:27.57 | 40175 | 73756
7 | 16:23.32 | 2:31.08 | 73757 | 85089
8 | 18:54.40 | 1:18.20 | 85090 | 90959
9 | 20:12.60 | 3:48.57 | 90960 | 108116
10 | 24:01.42 | 1:29.43 | 108117 | 114834
11 | 25:31.10 | 5:07.70 | 114835 | 137929
12 | 30:39.05 | 0:48.15 | 137930 | 141544
13 | 31:27.20 | 4:47.37 | 141545 | 163106
14 | 36:14.57 | 4:59.18 | 163107 | 185549
15 | 41:14.00 | 3:21.62 | 185550 | 200686
16 | 44:35.62 | 5:57.08 | 200687 | 227469
17 | 50:32.70 | 6:31.65 | 227470 | 256859
18 | 57:04.60 | 9:10.35 | 256860 | 298144
Range status and errors
Selected range
Filename E:\4000\[4451] Stravinsky – Ballets, Stage Works, Orchestral Works – Ernest Ansermet\cd1\Stravinsky - Ballets, Stage Works, Orchestral Works - Ernest Ansermet (Disc 1).wav
Peak level 98.8 %
Extraction speed 2.3 X
Range quality 100.0 %
Test CRC A36128C5
Copy CRC A36128C5
Copy OK
No errors occurred
AccurateRip summary
Track 1 cannot be verified as accurate (confidence 7) [48218005], AccurateRip returned [30674C06] (AR v2)
Track 2 cannot be verified as accurate (confidence 7) [029287D6], AccurateRip returned [41EA3274] (AR v2)
Track 3 cannot be verified as accurate (confidence 7) [8D7FC8A5], AccurateRip returned [DC4D16D4] (AR v2)
Track 4 cannot be verified as accurate (confidence 7) [8B83DD96], AccurateRip returned [E46DF063] (AR v2)
Track 5 cannot be verified as accurate (confidence 7) [3B799B53], AccurateRip returned [73B65CC0] (AR v2)
Track 6 cannot be verified as accurate (confidence 7) [B8F31C1D], AccurateRip returned [5BE7263D] (AR v2)
Track 7 cannot be verified as accurate (confidence 7) [F44745A9], AccurateRip returned [E67215B3] (AR v2)
Track 8 cannot be verified as accurate (confidence 7) [90045809], AccurateRip returned [BF20D868] (AR v2)
Track 9 cannot be verified as accurate (confidence 7) [CF2A3697], AccurateRip returned [3567E147] (AR v2)
Track 10 cannot be verified as accurate (confidence 7) [6333B2C8], AccurateRip returned [DA308BF7] (AR v2)
Track 11 cannot be verified as accurate (confidence 7) [5DFF25BE], AccurateRip returned [529CA0F8] (AR v2)
Track 12 cannot be verified as accurate (confidence 7) [32B3AC72], AccurateRip returned [80019C93] (AR v2)
Track 13 cannot be verified as accurate (confidence 7) [21075387], AccurateRip returned [FF3A127B] (AR v2)
Track 14 cannot be verified as accurate (confidence 7) [C8127F9D], AccurateRip returned [0C4B4FA2] (AR v2)
Track 15 cannot be verified as accurate (confidence 7) [2A1801C1], AccurateRip returned [A3035D90] (AR v2)
Track 16 cannot be verified as accurate (confidence 7) [BE139B06], AccurateRip returned [D9AF4C29] (AR v2)
Track 17 cannot be verified as accurate (confidence 7) [A9C5527F], AccurateRip returned [E3E217F0] (AR v2)
Track 18 cannot be verified as accurate (confidence 7) [ED442306], AccurateRip returned [8A9646C9] (AR v2)
No tracks could be verified as accurate
You may have a different pressing from the one(s) in the database
End of status report

Disc 2

Exact Audio Copy V1.0 beta 3 from 29. August 2011
EAC extraction logfile from 4. November 2013, 8:38
Ernest Ansermet / Stravinsky - Ballets, Stage Works, Orchestral Works - Ernest Ansermet (Disc 2)
Used drive : TSSTcorpCDDVDW SH-222BB Adapter: 2 ID: 1
Read mode : Secure
Utilize accurate stream : Yes
Defeat audio cache : Yes
Make use of C2 pointers : No
Read offset correction : 6
Overread into Lead-In and Lead-Out : No
Fill up missing offset samples with silence : Yes
Delete leading and trailing silent blocks : No
Null samples used in CRC calculations : Yes
Used interface : Native Win32 interface for Win NT & 2000
Used output format : User Defined Encoder
Selected bitrate : 1024 kBit/s
Quality : High
Add ID3 tag : No
Command line compressor : C:\Program Files\Exact Audio Copy\Flac\flac.exe
Additional command line options : -8 -V -T "TITLE=%title%" -T "ARTIST=%artist%" -T "ALBUMARTIST=%albumartist%" -T "ALBUM=%albumtitle%" -T "DATE=%year%" -T "TRACKNUMBER=%tracknr%" -T "TRACKTOTAL=%numtracks%" -T "GENRE=%genre%" -T "COMMENT=%comment%" -T "PERFORMER=%albuminterpret%" -T "COMPOSER=%composer%" %source% -o %dest%
TOC of the extracted CD
Track | Start | Length | Start sector | End sector
---------------------------------------------------------
1 | 0:00.32 | 9:58.35 | 32 | 44916
2 | 9:58.67 | 4:19.23 | 44917 | 64364
3 | 14:18.15 | 7:26.42 | 64365 | 97856
4 | 21:44.57 | 13:35.50 | 97857 | 159031
5 | 35:20.32 | 3:22.23 | 159032 | 174204
6 | 38:42.55 | 3:35.22 | 174205 | 190351
7 | 42:18.02 | 1:17.70 | 190352 | 196196
8 | 43:35.72 | 3:15.28 | 196197 | 210849
9 | 46:51.25 | 1:32.55 | 210850 | 217804
10 | 48:24.05 | 1:06.17 | 217805 | 222771
11 | 49:30.22 | 0:24.00 | 222772 | 224571
12 | 49:54.22 | 1:18.40 | 224572 | 230461
13 | 51:12.62 | 3:52.68 | 230462 | 247929
14 | 55:05.55 | 3:06.22 | 247930 | 261901
15 | 58:12.02 | 1:42.55 | 261902 | 269606
16 | 59:54.57 | 0:44.73 | 269607 | 272979
17 | 60:39.55 | 3:34.35 | 272980 | 289064
18 | 64:14.15 | 4:59.25 | 289065 | 311514
Range status and errors
Selected range
Filename E:\4000\[4451] Stravinsky – Ballets, Stage Works, Orchestral Works – Ernest Ansermet\cd2\Stravinsky - Ballets, Stage Works, Orchestral Works - Ernest Ansermet (Disc 2).wav
Peak level 100.0 %
Extraction speed 2.3 X
Range quality 100.0 %
Test CRC 635B11D6
Copy CRC 635B11D6
Copy OK
No errors occurred
AccurateRip summary
Track 1 accurately ripped (confidence 3) [D159EDE5] (AR v2)
Track 2 accurately ripped (confidence 3) [DA9F2F9C] (AR v2)
Track 3 accurately ripped (confidence 3) [EBD169DD] (AR v2)
Track 4 accurately ripped (confidence 3) [0D25EB69] (AR v2)
Track 5 accurately ripped (confidence 3) [1C924DA4] (AR v2)
Track 6 accurately ripped (confidence 3) [9DB44B51] (AR v2)
Track 7 accurately ripped (confidence 3) [96B77028] (AR v2)
Track 8 accurately ripped (confidence 3) [A8028FB5] (AR v2)
Track 9 accurately ripped (confidence 3) [BDD39EDA] (AR v2)
Track 10 accurately ripped (confidence 3) [2677207B] (AR v2)
Track 11 accurately ripped (confidence 3) [1B2F8F08] (AR v2)
Track 12 accurately ripped (confidence 3) [FA518267] (AR v2)
Track 13 accurately ripped (confidence 3) [D1EEA93D] (AR v2)
Track 14 accurately ripped (confidence 3) [528E9BA1] (AR v2)
Track 15 accurately ripped (confidence 3) [616150AB] (AR v2)
Track 16 accurately ripped (confidence 3) [DDC90950] (AR v2)
Track 17 accurately ripped (confidence 3) [E4568D22] (AR v2)
Track 18 accurately ripped (confidence 3) [FA3623F6] (AR v2)
All tracks accurately ripped
End of status report

Disc 3

Exact Audio Copy V1.0 beta 3 from 29. August 2011
EAC extraction logfile from 4. November 2013, 9:23
Ernest Ansermet / Stravinsky - Ballets, Stage Works, Orchestral Works - Ernest Ansermet (Disc 3)
Used drive : TSSTcorpCDDVDW SH-222BB Adapter: 2 ID: 1
Read mode : Secure
Utilize accurate stream : Yes
Defeat audio cache : Yes
Make use of C2 pointers : No
Read offset correction : 6
Overread into Lead-In and Lead-Out : No
Fill up missing offset samples with silence : Yes
Delete leading and trailing silent blocks : No
Null samples used in CRC calculations : Yes
Used interface : Native Win32 interface for Win NT & 2000
Used output format : User Defined Encoder
Selected bitrate : 1024 kBit/s
Quality : High
Add ID3 tag : No
Command line compressor : C:\Program Files\Exact Audio Copy\Flac\flac.exe
Additional command line options : -8 -V -T "TITLE=%title%" -T "ARTIST=%artist%" -T "ALBUMARTIST=%albumartist%" -T "ALBUM=%albumtitle%" -T "DATE=%year%" -T "TRACKNUMBER=%tracknr%" -T "TRACKTOTAL=%numtracks%" -T "GENRE=%genre%" -T "COMMENT=%comment%" -T "PERFORMER=%albuminterpret%" -T "COMPOSER=%composer%" %source% -o %dest%
TOC of the extracted CD
Track | Start | Length | Start sector | End sector
---------------------------------------------------------
1 | 0:00.32 | 1:51.05 | 32 | 8361
2 | 1:51.37 | 3:30.33 | 8362 | 24144
3 | 5:21.70 | 1:35.40 | 24145 | 31309
4 | 6:57.35 | 1:18.00 | 31310 | 37159
5 | 8:15.35 | 1:16.12 | 37160 | 42871
6 | 9:31.47 | 1:45.40 | 42872 | 50786
7 | 11:17.12 | 1:46.43 | 50787 | 58779
8 | 13:03.55 | 1:55.35 | 58780 | 67439
9 | 14:59.15 | 2:13.65 | 67440 | 77479
10 | 17:13.05 | 5:26.02 | 77480 | 101931
11 | 22:39.07 | 1:14.55 | 101932 | 107536
12 | 23:53.62 | 1:19.23 | 107537 | 113484
13 | 25:13.10 | 2:36.62 | 113485 | 125246
14 | 27:49.72 | 0:52.45 | 125247 | 129191
15 | 28:42.42 | 3:59.13 | 129192 | 147129
16 | 32:41.55 | 1:31.70 | 147130 | 154024
17 | 34:13.50 | 2:22.62 | 154025 | 164736
18 | 36:36.37 | 2:23.25 | 164737 | 175486
19 | 38:59.62 | 4:38.43 | 175487 | 196379
20 | 43:38.30 | 2:42.00 | 196380 | 208529
21 | 46:20.30 | 4:29.45 | 208530 | 228749
22 | 50:50.00 | 1:26.22 | 228750 | 235221
23 | 52:16.22 | 1:16.58 | 235222 | 240979
24 | 53:33.05 | 1:43.27 | 240980 | 248731
25 | 55:16.32 | 2:24.43 | 248732 | 259574
26 | 57:41.00 | 3:51.12 | 259575 | 276911
27 | 61:32.12 | 2:55.03 | 276912 | 290039
28 | 64:27.15 | 3:23.22 | 290040 | 305286
Range status and errors
Selected range
Filename E:\4000\[4451] Stravinsky – Ballets, Stage Works, Orchestral Works – Ernest Ansermet\cd3\Stravinsky - Ballets, Stage Works, Orchestral Works - Ernest Ansermet (Disc 3).wav
Peak level 99.9 %
Extraction speed 2.3 X
Range quality 100.0 %
Test CRC 1C406136
Copy CRC 1C406136
Copy OK
No errors occurred
AccurateRip summary
Track 1 cannot be verified as accurate (confidence 6) [EF3970D7], AccurateRip returned [A2BDACC7] (AR v2)
Track 2 cannot be verified as accurate (confidence 6) [C849D6D0], AccurateRip returned [1927B26D] (AR v2)
Track 3 cannot be verified as accurate (confidence 6) [F6D79C67], AccurateRip returned [B745A3AA] (AR v2)
Track 4 cannot be verified as accurate (confidence 6) [3D914233], AccurateRip returned [BF034C43] (AR v2)
Track 5 cannot be verified as accurate (confidence 6) [D4B5D3A7], AccurateRip returned [8FB644CA] (AR v2)
Track 6 cannot be verified as accurate (confidence 6) [49DF96CC], AccurateRip returned [CE69CB52] (AR v2)
Track 7 cannot be verified as accurate (confidence 6) [59B007C1], AccurateRip returned [1AC64809] (AR v2)
Track 8 cannot be verified as accurate (confidence 6) [8F28C680], AccurateRip returned [C170D64C] (AR v2)
Track 9 cannot be verified as accurate (confidence 6) [61FDDFCC], AccurateRip returned [A464A58E] (AR v2)
Track 10 cannot be verified as accurate (confidence 6) [D52238B7], AccurateRip returned [0131A2A9] (AR v2)
Track 11 cannot be verified as accurate (confidence 6) [6B57B2F0], AccurateRip returned [131ACDB3] (AR v2)
Track 12 cannot be verified as accurate (confidence 6) [74AEE221], AccurateRip returned [918AE2EE] (AR v2)
Track 13 cannot be verified as accurate (confidence 6) [8DFFD2AA], AccurateRip returned [6B1E7655] (AR v2)
Track 14 cannot be verified as accurate (confidence 6) [E6A5DEDA], AccurateRip returned [E9C578DD] (AR v2)
Track 15 cannot be verified as accurate (confidence 6) [DFD77593], AccurateRip returned [5A62EBB5] (AR v2)
Track 16 cannot be verified as accurate (confidence 6) [F306BA19], AccurateRip returned [1758CFDF] (AR v2)
Track 17 cannot be verified as accurate (confidence 6) [80E81E21], AccurateRip returned [40B21C4A] (AR v2)
Track 18 cannot be verified as accurate (confidence 6) [B8C1D72A], AccurateRip returned [63CB7EAC] (AR v2)
Track 19 cannot be verified as accurate (confidence 6) [07DC9DFF], AccurateRip returned [5E562EDE] (AR v2)
Track 20 cannot be verified as accurate (confidence 6) [A7172027], AccurateRip returned [8380309C] (AR v2)
Track 21 cannot be verified as accurate (confidence 6) [14B39046], AccurateRip returned [E475449A] (AR v2)
Track 22 cannot be verified as accurate (confidence 6) [AB6019F8], AccurateRip returned [17D4232B] (AR v2)
Track 23 cannot be verified as accurate (confidence 6) [852CB40F], AccurateRip returned [5D7B0E09] (AR v2)
Track 24 cannot be verified as accurate (confidence 6) [8ECA653F], AccurateRip returned [87F189E4] (AR v2)
Track 25 cannot be verified as accurate (confidence 6) [8C3631F6], AccurateRip returned [D303731E] (AR v2)
Track 26 cannot be verified as accurate (confidence 6) [41E1DF56], AccurateRip returned [E075F8D9] (AR v2)
Track 27 cannot be verified as accurate (confidence 6) [0889AF45], AccurateRip returned [6FDAA748] (AR v2)
Track 28 cannot be verified as accurate (confidence 6) [57D0B128], AccurateRip returned [BBFA637C] (AR v2)
No tracks could be verified as accurate
You may have a different pressing from the one(s) in the database
End of status report

Disc 4

Exact Audio Copy V1.0 beta 3 from 29. August 2011
EAC extraction logfile from 4. November 2013, 9:57
Ernest Ansermet / Stravinsky - Ballets, Stage Works, Orchestral Works - Ernest Ansermet (Disc 4)
Used drive : TSSTcorpCDDVDW SH-222BB Adapter: 2 ID: 1
Read mode : Secure
Utilize accurate stream : Yes
Defeat audio cache : Yes
Make use of C2 pointers : No
Read offset correction : 6
Overread into Lead-In and Lead-Out : No
Fill up missing offset samples with silence : Yes
Delete leading and trailing silent blocks : No
Null samples used in CRC calculations : Yes
Used interface : Native Win32 interface for Win NT & 2000
Used output format : User Defined Encoder
Selected bitrate : 1024 kBit/s
Quality : High
Add ID3 tag : No
Command line compressor : C:\Program Files\Exact Audio Copy\Flac\flac.exe
Additional command line options : -8 -V -T "TITLE=%title%" -T "ARTIST=%artist%" -T "ALBUMARTIST=%albumartist%" -T "ALBUM=%albumtitle%" -T "DATE=%year%" -T "TRACKNUMBER=%tracknr%" -T "TRACKTOTAL=%numtracks%" -T "GENRE=%genre%" -T "COMMENT=%comment%" -T "PERFORMER=%albuminterpret%" -T "COMPOSER=%composer%" %source% -o %dest%
TOC of the extracted CD
Track | Start | Length | Start sector | End sector
---------------------------------------------------------
1 | 0:00.32 | 8:22.58 | 32 | 37739
2 | 8:23.15 | 11:04.50 | 37740 | 87589
3 | 19:27.65 | 14:41.72 | 87590 | 153736
4 | 34:09.62 | 8:50.35 | 153737 | 193521
5 | 43:00.22 | 16:38.10 | 193522 | 268381
Range status and errors
Selected range
Filename E:\4000\[4451] Stravinsky – Ballets, Stage Works, Orchestral Works – Ernest Ansermet\cd4\Stravinsky - Ballets, Stage Works, Orchestral Works - Ernest Ansermet (Disc 4).wav
Peak level 94.0 %
Extraction speed 2.3 X
Range quality 100.0 %
Test CRC B437F60A
Copy CRC B437F60A
Copy OK
No errors occurred
AccurateRip summary
Track 1 accurately ripped (confidence 3) [BA294931] (AR v2)
Track 2 accurately ripped (confidence 3) [0CAF7C5B] (AR v2)
Track 3 accurately ripped (confidence 3) [2D519A1B] (AR v2)
Track 4 accurately ripped (confidence 3) [6DFF6F08] (AR v2)
Track 5 accurately ripped (confidence 3) [96A24E32] (AR v2)
All tracks accurately ripped
End of status report

Disc 5

Exact Audio Copy V1.0 beta 3 from 29. August 2011
EAC extraction logfile from 4. November 2013, 10:22
Ernest Ansermet / Stravinsky - Ballets, Stage Works, Orchestral Works - Ernest Ansermet (Disc 5)
Used drive : TSSTcorpCDDVDW SH-222BB Adapter: 2 ID: 1
Read mode : Secure
Utilize accurate stream : Yes
Defeat audio cache : Yes
Make use of C2 pointers : No
Read offset correction : 6
Overread into Lead-In and Lead-Out : No
Fill up missing offset samples with silence : Yes
Delete leading and trailing silent blocks : No
Null samples used in CRC calculations : Yes
Used interface : Native Win32 interface for Win NT & 2000
Used output format : User Defined Encoder
Selected bitrate : 1024 kBit/s
Quality : High
Add ID3 tag : No
Command line compressor : C:\Program Files\Exact Audio Copy\Flac\flac.exe
Additional command line options : -8 -V -T "TITLE=%title%" -T "ARTIST=%artist%" -T "ALBUMARTIST=%albumartist%" -T "ALBUM=%albumtitle%" -T "DATE=%year%" -T "TRACKNUMBER=%tracknr%" -T "TRACKTOTAL=%numtracks%" -T "GENRE=%genre%" -T "COMMENT=%comment%" -T "PERFORMER=%albuminterpret%" -T "COMPOSER=%composer%" %source% -o %dest%
TOC of the extracted CD
Track | Start | Length | Start sector | End sector
---------------------------------------------------------
1 | 0:00.32 | 1:42.38 | 32 | 7719
2 | 1:42.70 | 2:39.50 | 7720 | 19694
3 | 4:22.45 | 2:24.57 | 19695 | 30551
4 | 6:47.27 | 2:39.53 | 30552 | 42529
5 | 9:27.05 | 2:56.65 | 42530 | 55794
6 | 12:23.70 | 6:13.22 | 55795 | 83791
7 | 18:37.17 | 1:27.53 | 83792 | 90369
8 | 20:04.70 | 3:08.62 | 90370 | 104531
9 | 23:13.57 | 2:18.43 | 104532 | 114924
10 | 25:32.25 | 1:51.12 | 114925 | 123261
11 | 27:23.37 | 3:11.50 | 123262 | 137636
12 | 30:35.12 | 1:32.63 | 137637 | 144599
13 | 32:08.00 | 1:12.50 | 144600 | 150049
14 | 33:20.50 | 1:17.55 | 150050 | 155879
15 | 34:38.30 | 2:00.35 | 155880 | 164914
16 | 36:38.65 | 0:52.25 | 164915 | 168839
17 | 37:31.15 | 4:07.20 | 168840 | 187384
18 | 41:38.35 | 1:28.30 | 187385 | 194014
19 | 43:06.65 | 2:30.72 | 194015 | 205336
20 | 45:37.62 | 2:08.00 | 205337 | 214936
Range status and errors
Selected range
Filename E:\4000\[4451] Stravinsky – Ballets, Stage Works, Orchestral Works – Ernest Ansermet\cd5\Stravinsky - Ballets, Stage Works, Orchestral Works - Ernest Ansermet (Disc 5).wav
Peak level 88.8 %
Extraction speed 2.3 X
Range quality 99.9 %
Test CRC 669AAB83
Copy CRC 669AAB83
Copy OK
No errors occurred
AccurateRip summary
Track 1 accurately ripped (confidence 4) [334BB8F0] (AR v2)
Track 2 accurately ripped (confidence 4) [F97E6C6F] (AR v2)
Track 3 accurately ripped (confidence 4) [8C54187D] (AR v2)
Track 4 accurately ripped (confidence 4) [3560F0BA] (AR v2)
Track 5 accurately ripped (confidence 4) [3735A743] (AR v2)
Track 6 accurately ripped (confidence 4) [B2EB6646] (AR v2)
Track 7 accurately ripped (confidence 4) [0001E2AF] (AR v2)
Track 8 accurately ripped (confidence 4) [DA895EB2] (AR v2)
Track 9 accurately ripped (confidence 4) [87C5C7D6] (AR v2)
Track 10 accurately ripped (confidence 4) [9F1032C1] (AR v2)
Track 11 accurately ripped (confidence 4) [C24B9437] (AR v2)
Track 12 accurately ripped (confidence 4) [B56A8AEA] (AR v2)
Track 13 accurately ripped (confidence 4) [FF6FC507] (AR v2)
Track 14 accurately ripped (confidence 4) [CE4D9092] (AR v2)
Track 15 accurately ripped (confidence 4) [C12ED466] (AR v2)
Track 16 accurately ripped (confidence 4) [97C99150] (AR v2)
Track 17 accurately ripped (confidence 4) [4077EDEB] (AR v2)
Track 18 accurately ripped (confidence 4) [0E215146] (AR v2)
Track 19 accurately ripped (confidence 4) [71B8BBEF] (AR v2)
Track 20 accurately ripped (confidence 4) [B8FC933E] (AR v2)
All tracks accurately ripped
End of status report

Disc 6

Exact Audio Copy V1.0 beta 3 from 29. August 2011
EAC extraction logfile from 4. November 2013, 9:57
Ernest Ansermet / Stravinsky - Ballets, Stage Works, Orchestral Works - Ernest Ansermet (Disc 6)
Used drive : TSSTcorpCDDVDW TS-L633M Adapter: 1 ID: 0
Read mode : Secure
Utilize accurate stream : Yes
Defeat audio cache : Yes
Make use of C2 pointers : No
Read offset correction : 6
Overread into Lead-In and Lead-Out : No
Fill up missing offset samples with silence : Yes
Delete leading and trailing silent blocks : No
Null samples used in CRC calculations : Yes
Used interface : Native Win32 interface for Win NT & 2000
Used output format : User Defined Encoder
Selected bitrate : 320 kBit/s
Quality : High
Add ID3 tag : No
Command line compressor : C:\Program Files\Exact Audio Copy\Flac\flac.exe
Additional command line options : -8 -V -T "TITLE=%title%" -T "ARTIST=%artist%" -T "ALBUMARTIST=%albumartist%" -T "ALBUM=%albumtitle%" -T "DATE=%year%" -T "TRACKNUMBER=%tracknr%" -T "TRACKTOTAL=%numtracks%" -T "GENRE=%genre%" -T "COMMENT=%comment%" -T "PERFORMER=%albuminterpret%" -T "COMPOSER=%composer%" %source% -o %dest%
TOC of the extracted CD
Track | Start | Length | Start sector | End sector
---------------------------------------------------------
1 | 0:00.32 | 10:45.63 | 32 | 48469
2 | 10:46.20 | 8:01.20 | 48470 | 84564
3 | 18:47.40 | 5:02.70 | 84565 | 107284
4 | 23:50.35 | 7:17.70 | 107285 | 140129
5 | 31:08.30 | 10:33.40 | 140130 | 187644
6 | 41:41.70 | 5:48.57 | 187645 | 213801
7 | 47:30.52 | 6:23.48 | 213802 | 242574
8 | 53:54.25 | 9:14.05 | 242575 | 284129
Range status and errors
Selected range
Filename C:\Users\JS\Desktop\Stravinsky - Ballets, Stage Works, Orchestral Works - Ernest Ansermet\cd6\Stravinsky - Ballets, Stage Works, Orchestral Works - Ernest Ansermet (Disc 6).wav
Peak level 84.7 %
Extraction speed 3.8 X
Range quality 100.0 %
Test CRC AA04CC0F
Copy CRC AA04CC0F
Copy OK
No errors occurred
AccurateRip summary
Track 1 accurately ripped (confidence 2) [87A181E1] (AR v2)
Track 2 accurately ripped (confidence 2) [61B77266] (AR v2)
Track 3 accurately ripped (confidence 2) [5A137900] (AR v2)
Track 4 accurately ripped (confidence 2) [4AD2ED66] (AR v2)
Track 5 accurately ripped (confidence 2) [4BC42976] (AR v2)
Track 6 accurately ripped (confidence 2) [0E484FF9] (AR v2)
Track 7 accurately ripped (confidence 2) [7E1F60C3] (AR v2)
Track 8 accurately ripped (confidence 2) [ACED88AB] (AR v2)
All tracks accurately ripped
End of status report

Disc 7

Exact Audio Copy V1.0 beta 3 from 29. August 2011
EAC extraction logfile from 4. November 2013, 10:50
Ernest Ansermet / Stravinsky - Ballets, Stage Works, Orchestral Works - Ernest Ansermet (Disc 7)
Used drive : TSSTcorpCDDVDW SH-222BB Adapter: 2 ID: 1
Read mode : Secure
Utilize accurate stream : Yes
Defeat audio cache : Yes
Make use of C2 pointers : No
Read offset correction : 6
Overread into Lead-In and Lead-Out : No
Fill up missing offset samples with silence : Yes
Delete leading and trailing silent blocks : No
Null samples used in CRC calculations : Yes
Used interface : Native Win32 interface for Win NT & 2000
Used output format : User Defined Encoder
Selected bitrate : 1024 kBit/s
Quality : High
Add ID3 tag : No
Command line compressor : C:\Program Files\Exact Audio Copy\Flac\flac.exe
Additional command line options : -8 -V -T "TITLE=%title%" -T "ARTIST=%artist%" -T "ALBUMARTIST=%albumartist%" -T "ALBUM=%albumtitle%" -T "DATE=%year%" -T "TRACKNUMBER=%tracknr%" -T "TRACKTOTAL=%numtracks%" -T "GENRE=%genre%" -T "COMMENT=%comment%" -T "PERFORMER=%albuminterpret%" -T "COMPOSER=%composer%" %source% -o %dest%
TOC of the extracted CD
Track | Start | Length | Start sector | End sector
---------------------------------------------------------
1 | 0:00.32 | 6:49.45 | 32 | 30751
2 | 6:50.02 | 6:17.15 | 30752 | 59041
3 | 13:07.17 | 4:44.65 | 59042 | 80406
4 | 17:52.07 | 6:32.55 | 80407 | 109861
5 | 24:24.62 | 4:56.13 | 109862 | 132074
6 | 29:21.00 | 5:33.27 | 132075 | 157076
7 | 34:54.27 | 1:18.03 | 157077 | 162929
8 | 36:12.30 | 1:05.40 | 162930 | 167844
9 | 37:17.70 | 0:58.15 | 167845 | 172209
10 | 38:16.10 | 1:00.00 | 172210 | 176709
11 | 39:16.10 | 1:15.20 | 176710 | 182354
12 | 40:31.30 | 1:59.12 | 182355 | 191291
13 | 42:30.42 | 1:00.10 | 191292 | 195801
14 | 43:30.52 | 2:17.48 | 195802 | 206124
15 | 45:48.25 | 0:59.50 | 206125 | 210599
16 | 46:48.00 | 1:55.25 | 210600 | 219249
17 | 48:43.25 | 4:06.30 | 219250 | 237729
18 | 52:49.55 | 2:48.37 | 237730 | 250366
19 | 55:38.17 | 4:18.08 | 250367 | 269724
Range status and errors
Selected range
Filename E:\4000\[4451] Stravinsky – Ballets, Stage Works, Orchestral Works – Ernest Ansermet\cd7\Stravinsky - Ballets, Stage Works, Orchestral Works - Ernest Ansermet (Disc 7).wav
Peak level 96.9 %
Extraction speed 2.3 X
Range quality 100.0 %
Test CRC 26C798B2
Copy CRC 26C798B2
Copy OK
No errors occurred
AccurateRip summary
Track 1 accurately ripped (confidence 3) [72592F76] (AR v2)
Track 2 accurately ripped (confidence 3) [C361C87F] (AR v2)
Track 3 accurately ripped (confidence 3) [F61C8A9D] (AR v2)
Track 4 accurately ripped (confidence 3) [B8EF4AE5] (AR v2)
Track 5 accurately ripped (confidence 3) [675142F4] (AR v2)
Track 6 accurately ripped (confidence 3) [CACE07BB] (AR v2)
Track 7 accurately ripped (confidence 3) [9331203A] (AR v2)
Track 8 accurately ripped (confidence 3) [AFCFCC62] (AR v2)
Track 9 accurately ripped (confidence 3) [E0D65DDB] (AR v2)
Track 10 accurately ripped (confidence 3) [EAAD93D7] (AR v2)
Track 11 accurately ripped (confidence 3) [00C48077] (AR v2)
Track 12 accurately ripped (confidence 3) [B5933761] (AR v2)
Track 13 accurately ripped (confidence 3) [C866B706] (AR v2)
Track 14 accurately ripped (confidence 3) [16BE671E] (AR v2)
Track 15 accurately ripped (confidence 3) [2DD0E767] (AR v2)
Track 16 accurately ripped (confidence 3) [3C18128B] (AR v2)
Track 17 accurately ripped (confidence 3) [F5660AE6] (AR v2)
Track 18 accurately ripped (confidence 3) [625F3DE9] (AR v2)
Track 19 accurately ripped (confidence 3) [7DBA0507] (AR v2)
All tracks accurately ripped
End of status report

Disc 8

Exact Audio Copy V1.0 beta 3 from 29. August 2011
EAC extraction logfile from 4. November 2013, 10:40
Ernest Ansermet / Stravinsky - Ballets, Stage Works, Orchestral Works - Ernest Ansermet (Disc 8)
Used drive : TSSTcorpCDDVDW TS-L633M Adapter: 1 ID: 0
Read mode : Secure
Utilize accurate stream : Yes
Defeat audio cache : Yes
Make use of C2 pointers : No
Read offset correction : 6
Overread into Lead-In and Lead-Out : No
Fill up missing offset samples with silence : Yes
Delete leading and trailing silent blocks : No
Null samples used in CRC calculations : Yes
Used interface : Native Win32 interface for Win NT & 2000
Used output format : User Defined Encoder
Selected bitrate : 320 kBit/s
Quality : High
Add ID3 tag : No
Command line compressor : C:\Program Files\Exact Audio Copy\Flac\flac.exe
Additional command line options : -8 -V -T "TITLE=%title%" -T "ARTIST=%artist%" -T "ALBUMARTIST=%albumartist%" -T "ALBUM=%albumtitle%" -T "DATE=%year%" -T "TRACKNUMBER=%tracknr%" -T "TRACKTOTAL=%numtracks%" -T "GENRE=%genre%" -T "COMMENT=%comment%" -T "PERFORMER=%albuminterpret%" -T "COMPOSER=%composer%" %source% -o %dest%
TOC of the extracted CD
Track | Start | Length | Start sector | End sector
---------------------------------------------------------
1 | 0:00.32 | 3:36.00 | 32 | 16231
2 | 3:36.32 | 7:11.58 | 16232 | 48614
3 | 10:48.15 | 10:33.02 | 48615 | 96091
4 | 21:21.17 | 4:58.60 | 96092 | 118501
5 | 26:20.02 | 6:18.68 | 118502 | 146919
6 | 32:38.70 | 3:30.70 | 146920 | 162739
7 | 36:09.65 | 10:15.12 | 162740 | 208876
8 | 46:25.02 | 2:45.35 | 208877 | 221286
9 | 49:10.37 | 1:16.18 | 221287 | 227004
10 | 50:26.55 | 3:46.05 | 227005 | 243959
11 | 54:12.60 | 0:47.55 | 243960 | 247539
12 | 55:00.40 | 2:20.42 | 247540 | 258081
13 | 57:21.07 | 0:15.43 | 258082 | 259249
14 | 57:36.50 | 3:12.02 | 259250 | 273651
15 | 60:48.52 | 0:39.03 | 273652 | 276579
16 | 61:27.55 | 2:08.37 | 276580 | 286216
17 | 63:36.17 | 0:44.28 | 286217 | 289544
18 | 64:20.45 | 4:46.70 | 289545 | 311064
19 | 69:07.40 | 0:47.05 | 311065 | 314594
20 | 69:54.45 | 2:28.32 | 314595 | 325726
21 | 72:23.02 | 1:44.38 | 325727 | 333564
Range status and errors
Selected range
Filename C:\Users\JS\Desktop\Stravinsky - Ballets, Stage Works, Orchestral Works - Ernest Ansermet\cd8\Stravinsky - Ballets, Stage Works, Orchestral Works - Ernest Ansermet (Disc 8).wav
Peak level 80.0 %
Extraction speed 2.2 X
Range quality 100.0 %
Test CRC 94C82CB0
Copy CRC 94C82CB0
Copy OK
No errors occurred
AccurateRip summary
Track 1 accurately ripped (confidence 2) [72E4DBC3] (AR v2)
Track 2 accurately ripped (confidence 2) [1099B8B0] (AR v2)
Track 3 accurately ripped (confidence 2) [38629CC6] (AR v2)
Track 4 accurately ripped (confidence 2) [9E1BFE31] (AR v2)
Track 5 accurately ripped (confidence 2) [D878B516] (AR v2)
Track 6 accurately ripped (confidence 2) [9F9AB808] (AR v2)
Track 7 accurately ripped (confidence 2) [E6C15DCE] (AR v2)
Track 8 accurately ripped (confidence 2) [05E8A985] (AR v2)
Track 9 accurately ripped (confidence 2) [6171DC7B] (AR v2)
Track 10 accurately ripped (confidence 2) [A976F64D] (AR v2)
Track 11 accurately ripped (confidence 2) [4023548E] (AR v2)
Track 12 accurately ripped (confidence 2) [89CB8C05] (AR v2)
Track 13 accurately ripped (confidence 2) [576FAAFF] (AR v2)
Track 14 accurately ripped (confidence 2) [B240A1D8] (AR v2)
Track 15 accurately ripped (confidence 2) [8549BC0D] (AR v2)
Track 16 accurately ripped (confidence 2) [4B79E618] (AR v2)
Track 17 accurately ripped (confidence 2) [AB2C561F] (AR v2)
Track 18 accurately ripped (confidence 2) [F3619186] (AR v2)
Track 19 accurately ripped (confidence 2) [6EA13D46] (AR v2)
Track 20 accurately ripped (confidence 2) [7D5591D9] (AR v2)
Track 21 accurately ripped (confidence 2) [B66D288D] (AR v2)
All tracks accurately ripped
End of status report
[teatrix.ru].t19621.torrent 
Торрент: Зарегистрирован [ 2016-03-18 12:32 ] · 53A6A695B27184779A8E42780B16BE0522DBFFB4

Скачать .torrent

Скачать

17 KB

Статус: проверено
Скачан: 1 раз
Размер: 2.27 GB
terms.php



Быстрый ответ

Имя:

      
Для отправки сообщений необходимо включить JavaScript
Показать сообщения:    

Текущее время: 07-Дек 13:37

Часовой пояс: UTC + 3


Вы можете начинать темы
Вы можете отвечать на сообщения
Вы не можете редактировать свои сообщения
Вы не можете удалять свои сообщения
Вы не можете голосовать в опросах
Вы не можете прикреплять файлы к сообщениям
Вы можете скачивать файлы